Зильс-Мария / Clouds of Sils Maria (2014) WEB-DLRip

 

Создавать темы 21-Дек-2014 18:05

-Зильс-Мария / Clouds of Sils Maria (2014) WEB-DLRip- Год выпуска: 2014
Производство: Франция, Швейцария, Германия
Жанр: Драма
Перевод: Многоголосый закадровый, профессиональный
Субтитры: Отсутствуют
Дата мировой премьеры: 23 мая 2014
Дата российской премьеры: 23 октября 2014, «Cinema Prestige»
Режиссер: Оливье Ассайас
Продюсер: Шарль Жилибер, Сильви Барте, Карл Баумгартнер
Актеры: Жюльет Бинош, Кристен Стюарт, Хлоя Грейс Морец, Ларс Эйдингер, Джонни Флинн, Ангела Винклер, Ханнс Цишлер, Нора фон Вальдштеттен, Брэйди Корбет, Алёша Стэйделманн
Описание фильма:
В восемнадцать лет Мария Эндерс с успехом дебютировала в пьесе MalojaSnake. Она исполнила роль Сигрид, амбициозной девушки с непреодолимым обаянием, которая сначала очаровала, а потом довела до самоубийства взрослую женщину по имени Элена. Эта роль изменила ее жизнь. Более двадцати лет спустя, на пике славы, Марию приглашают в Цюрих на церемонию вручения престижной награды от имени автора и режиссера, которому она обязана своим ранним признанием, Вильгельма Мельхиора, живущего ныне отшельником в швейцарской деревне Зильс Мария. Но неожиданная смерть последнего за несколько часов до церемонии погружает Марию Эндерс в круговорот времени, прошлое, которое никогда не спит, возвращается…

Продолжительность: 02:03:30
Качество видео: WEB-DLRip
Видеокодек: Xvid
Битрейт видео: ~720x304
Размер кадра: 1295 kb/s
Аудиокодек: AC3 2.0
Битрейт аудио: 384 kb/s
Сэмпл: Скачать

MediaInfo:

Общее
Полное имя                               : Clouds.of.Sils.Maria.2014.P.WEB-DLRip.1400MB.nnm-club.avi
Формат                                   : AVI
Формат/Информация                        : Audio Video Interleave
Размер файла                             : 1,46 Гбайт
Продолжительность                        : 2 ч. 3 м.
Общий поток                              : 1688 Кбит/сек
Программа кодирования                    : VirtualDubMod 1.5.10.2 (build 2540/release)
Библиотека кодирования                   : VirtualDubMod build 2540/release
Видео
Идентификатор                            : 0
Формат                                   : MPEG-4 Visual
Профиль формата                          : Advanced [email protected]
Параметр BVOP формата                    : 2
Параметр QPel формата                    : Нет
Параметр GMC формата                     : Без точки перехода
Параметр матрицы формата                 : Default (MPEG)
Идентификатор кодека                     : XVID
Идентификатор кодека/Подсказка           : XviD
Продолжительность                        : 2 ч. 3 м.
Битрейт                                  : 1295 Кбит/сек
Ширина                                   : 720 пикселей
Высота                                   : 304 пикселя
Соотношение сторон                       : 2,35:1
Частота кадров                           : 24,000 кадра/сек
Цветовое пространство                    : YUV
Субдискретизация насыщенности            : 4:2:0
Битовая глубина                          : 8 бит
Тип развёртки                            : Прогрессивная
Метод сжатия                             : С потерями
Бит/(Пиксели*Кадры)                      : 0.246
Размер потока                            : 1,12 Гбайт (77%)
Библиотека кодирования                   : XviD 1.2.1 (UTC 2008-12-04)
Аудио
Идентификатор                            : 1
Формат                                   : AC-3
Формат/Информация                        : Audio Coding 3
Расширение режима                        : CM (complete main)
Параметр Endianness формата              : Big
Идентификатор кодека                     : 2000
Продолжительность                        : 2 ч. 3 м.
Вид битрейта                             : Постоянный
Битрейт                                  : 384 Кбит/сек
Каналы                                   : 2 канала
Расположение каналов                     : Front: L R
Частота                                  : 48,0 КГц
Битовая глубина                          : 16 бит
Метод сжатия                             : С потерями
Размер потока                            : 339 Мбайт (23%)
Выравнивание                             : Разделение по промежуткам
Продолжительность промежутка             : 42  мс. (1,00 видеокадр)
Время предзагрузки промежутка            : 500  мс.
Скриншоты:
--Время раздачи: 24/7 (до 10 скачавших)
Яндекс.Метрика
Рейтинг@Mail.ru