До свидания мама (2014) DVDRip

 

Создавать темы 21-Дек-2014 05:24

- До свидания мама (2014) DVDRip- Год выпуска: 2014
Производство: Россия / Мосфильм, Кинокомпания «Слон»
Жанр: Драма
Режиссер: Светлана Проскурина
Продюсер: Сабина Еремеева
Актеры: Даумантас Цюнис, Александра Ребенок, Алексей Вертков, Диана Ганцевскайте, Мария Леонова, Яна Терешина
Описание фильма:
В жизни Анны было семейное счастье. Но однажды она встретила мужчину, который перевернул устоявшийся семейный быт. Женщина вновь полюбила. Но никто не мог предположить, что на пути к счастью станет собственный ребенок. Новый ухажер видел в ребенке любимой настоящую угрозу. Поэтому он пошел на крайние меры. Но как можно делать выбор между мужчиной и родной кровью?
Перевод: Не требуется [Лицензия]
Субтитры: Отсутствуют--Дата российской премьеры: 19 июня 2014
Дата выхода DVD релиза: 9 декабря 2014, «Lizard Cinema Trade»

Продолжительность: 01:38:19
Качество видео: DVDRip
Видеокодек: XviD
Битрейт видео: 1663 Kbit/s
Размер кадра: 720x400
Аудиокодек: AC-3
Битрейт аудио: АС3, 6 ch, 448 Кбит/с
Сэмпл: Скачать

MediaInfo:

Общее
Полное имя : D:\Фильмы новинки\Do.svdaniya.mama.2014.O.DVDRip.avi
Формат : AVI
Формат/Информация : Audio Video Interleave
Размер файла : 1,46 Гбайт
Продолжительность : 1 ч. 38 м.
Общий поток : 2121 Кбит/сек
Программа кодирования : VirtualDubMod 1.5.10.3 | www.virtualdub-fr.org || (build 2550/release)
Библиотека кодирования : VirtualDubMod build 2550/release
Видео
Идентификатор : 0
Формат : MPEG-4 Visual
Профиль формата : Advanced [email protected]
Параметр BVOP формата : 1
Параметр QPel формата : Нет
Параметр GMC формата : Без точки перехода
Параметр матрицы формата : Выборочная
Идентификатор кодека : XVID
Идентификатор кодека/Подсказка : XviD
Продолжительность : 1 ч. 38 м.
Битрейт : 1663 Кбит/сек
Ширина : 720 пикселей
Высота : 400 пикселей
Соотношение сторон : 16:9
Частота кадров : 25,000 кадров/сек
Цветовое пространство : YUV
Субдискретизация насыщенности : 4:2:0
Битовая глубина : 8 бит
Тип развёртки : Прогрессивная
Метод сжатия : С потерями
Бит/(Пиксели*Кадры) : 0.231
Размер потока : 1,14 Гбайт (78%)
Библиотека кодирования : XviD 73
Аудио
Идентификатор : 1
Формат : AC-3
Формат/Информация : Audio Coding 3
Расширение режима : CM (complete main)
Параметр Endianness формата : Big
Идентификатор кодека : 2000
Продолжительность : 1 ч. 38 м.
Вид битрейта : Постоянный
Битрейт : 448 Кбит/сек
Каналы : 6 каналов
Расположение каналов : Front: L C R, Side: L R, LFE
Частота : 48,0 КГц
Битовая глубина : 16 бит
Метод сжатия : С потерями
Размер потока : 315 Мбайт (21%)
Выравнивание : Разделение по промежуткам
Продолжительность промежутка : 40 мс. (1,00 видеокадр)
Время предзагрузки промежутка : 500 мс.
Скриншоты:
-Время раздачи: По возможности. До первых 5 сидов.
Яндекс.Метрика
Рейтинг@Mail.ru