[ Сегодня на трекере фрилич! Идет свободное скачивание без начисления Download ]

Срочно! Ищу мужа (2011) HDTV [1080p]

 

Создавать темы 21-Дек-2014 05:22

-Срочно! Ищу мужа (2011) HDTV Год выпуска: 2011
Страна: Россия, Украина
Жанр: Мелодрама
Студия: Кинокомпания "УПС"
Режиссер: Алина Чеботарева
Актеры: Антон Макарский, Марина Александрова, Олег Савкин, Олег Масленников, Римма Зюбина, Вита Смачелюк, Кирилл Бин, Алла Мартынюк
Описание фильма: Милая девушка Лена живет в маленьком городке, работает врачом в поликлинике. Мать Лены мечтает выдать дочь замуж и даже нашла для нее подходящую партию. Сергей Романович не молод, зато у него приличный доход и серьезные намерения. Доводы Лены против этого брака мать и слышать не хочет. И тогда Лена показывает паспорт, а там — штамп и имя мужа — Антон Андреевич Кириллов.
Тем временем Антон Андреевич Кириллов после окончания МГИМО ждет назначения на дипслужбу за рубеж, о котором хлопочет его отец — видный политик. И когда назначение уже почти подписано, отец узнает, что Антон женат! Антон видел ее один раз мельком и даже плохо помнит, как выглядела эта женщина и где она живет. А штамп в паспорте — результат шальной авантюры его друга Стаса.
И вот, чтобы избежать неприятностей накануне назначения, Антон отправляется на поиски своей фиктивной супруги, а Лена, по настоянию матери, — на поиски мужа, который должен признать ее своей законной женой. Она едет в Москву, а он — в ее городок.

Премьера в России: 11 декабря 2011
Продолжительность: 01:32:14
Качество видео: HDTV [1080p]
Формат: MPEG-TS
Видео кодек: MPEG-4 AVC
Битрейт видео: ~6473 kbps avg, 0.114 bit/pixel
Размер кадра: 1920х1080 (16:9), 25 fps
Аудио кодек: MP2, 2 канала
Аудио: 48,0 КГц, ~256 kbps

Благодарности:

Большое СПАСИБО человеку под ником Vadim за предоставление исходника

MediaInfo:

Общее
Идентификатор : 1 (0x1)
Полное имя : D:\Srochno.ischu.muzha.2011.HDTV..ts
Формат : MPEG-TS
Размер файла : 4,17 Гбайт
Продолжительность : 1 ч. 32 м.
Режим общего битрейта : Переменный
Общий поток : 6473 Кбит/сек
Максимальный общий битрейт : 35,5 Мбит/сек
Видео
Идентификатор : 4113 (0x1011)
Идентификатор меню : 1 (0x1)
Формат : AVC
Формат/Информация : Advanced Video Codec
Профиль формата : [url=mailto:[email protected]][email protected][/url]
Параметр CABAC формата : Да
Параметр ReFrames формата : 3 кадра
Идентификатор кодека : 27
Продолжительность : 1 ч. 32 м.
Вид битрейта : Переменный
Битрейт : 5894 Кбит/сек
Максимальный битрейт : 40,0 Мбит/сек
Ширина : 1920 пикселей
Высота : 1080 пикселей
Соотношение сторон : 16:9
Частота кадров : 25,000 кадров/сек
Цветовое пространство : YUV
Субдискретизация насыщенности : 4:2:0
Битовая глубина : 8 бит
Тип развёртки : Прогрессивная
Бит/(Пиксели*Кадры) : 0.114
Размер потока : 3,80 Гбайт (91%)
Аудио
Идентификатор : 4352 (0x1100)
Идентификатор меню : 1 (0x1)
Формат : MPEG Audio
Версия формата : Version 1
Профиль формата : Layer 2
Идентификатор кодека : 4
Продолжительность : 1 ч. 32 м.
Вид битрейта : Постоянный
Битрейт : 256 Кбит/сек
Каналы : 2 канала
Частота : 48,0 КГц
Метод сжатия : С потерями
Размер потока : 169 Мбайт (4%)
Язык : Russian
Скриншоты:
-Время раздачи: 24/7 до первых 5 скачавших
Яндекс.Метрика
Рейтинг@Mail.ru