[ Сегодня на трекере фрилич! Идет свободное скачивание без начисления Download ]

Одержимость / Whiplash (2014) WEB-DLRip

 

Создавать темы 20-Дек-2014 18:12

-Одержимость / Whiplash (2014) WEB-DLRip- Год выпуска: 2014
Производство: США, Bold Films, Blumhouse Productions, Right of Way Films
Жанр: Драма
Описание фильма:
Эндрю мечтает стать великим. Казалось бы, вот-вот его мечта осуществится. Юношу замечает настоящий гений, дирижер лучшего в стране оркестра. Желание Эндрю добиться успеха быстро становится одержимостью, а безжалостный наставник продолжает подталкивать его все дальше и дальше — за пределы человеческих возможностей. Кто выйдет победителем из этой схватки?
Режиссер: Дамьен Шазель
Продюсер: Джейсон Блум, Хелен Эстабрук, Дэвид Ланкастер
Актеры: Майлз Теллер, Дж.К. Симмонс, Пол Райзер, Мелисса Беноист, Остин Стоуэлл, Нат Лэнг, Крис Малки, Дэймон Гаптон, Макс Кэш, Сюанн Споук
Перевод: Многоголосый закадровый, профессиональный Официальный
Субтитры: отсутствуют

Дата мировой премьеры: 6 января 2014, США, Кинофестиваль «Сандэнс»
Дата российской премьеры: 23 октября 2014, «Премиум Фильм»
Дата выхода DVD релиза: 5 февраля 2015, «CP Дистрибуция»
Продолжительность: 01:46:28
Качество видео: WEB-DLRip
Видеокодек: Xvid
Битрейт видео: ~1760 kb/s
Размер кадра: 720x304
Аудиокодек: AC3 2.0
Битрейт аудио: 192 kb/s
Сэмпл: Скачать

MediaInfo:

Общее
Полное имя : E:\Фильмы\Одержимость.2014.WEBDLRip.avi
Формат : AVI
Формат/Информация : Audio Video Interleave
Размер файла : 1,46 Гбайт
Продолжительность : 1 ч. 46 м.
Общий поток : 1962 Кбит/сек
Программа кодирования : VirtualDubMod 1.5.10.3 | www.virtualdub-fr.org || (build 2550/release)
Библиотека кодирования : VirtualDubMod build 2550/release
Видео
Идентификатор : 0
Формат : MPEG-4 Visual
Профиль формата : Advanced [email protected]
Параметр BVOP формата : 2
Параметр QPel формата : Нет
Параметр GMC формата : Без точки перехода
Параметр матрицы формата : Default (MPEG)
Идентификатор кодека : XVID
Идентификатор кодека/Подсказка : XviD
Продолжительность : 1 ч. 46 м.
Битрейт : 1760 Кбит/сек
Ширина : 720 пикселей
Высота : 304 пикселя
Соотношение сторон : 2,35:1
Частота кадров : 25,000 кадров/сек
Цветовое пространство : YUV
Субдискретизация насыщенности : 4:2:0
Битовая глубина : 8 бит
Тип развёртки : Прогрессивная
Метод сжатия : С потерями
Бит/(Пиксели*Кадры) : 0.322
Размер потока : 1,31 Гбайт (90%)
Библиотека кодирования : XviD 1.2.1 (UTC 2008-12-04)
Аудио
Идентификатор : 1
Формат : AC-3
Формат/Информация : Audio Coding 3
Расширение режима : CM (complete main)
Параметр Endianness формата : Big
Идентификатор кодека : 2000
Продолжительность : 1 ч. 46 м.
Вид битрейта : Постоянный
Битрейт : 192 Кбит/сек
Каналы : 2 канала
Расположение каналов : Front: L R
Частота : 48,0 КГц
Битовая глубина : 16 бит
Метод сжатия : С потерями
Размер потока : 146 Мбайт (10%)
Выравнивание : Разделение по промежуткам
Продолжительность промежутка : 40 мс. (1,00 видеокадр)
Время предзагрузки промежутка : 500 мс.
Скриншоты:
-Время раздачи: с 23:00 до 8:30
Яндекс.Метрика
Рейтинг@Mail.ru