В изгнании / Outcast (2014) WEB-DL[EN]

 

Создавать темы 20-Дек-2014 18:08

-В изгнании / Outcast (2014) WEB-DL[EN] - Год выпуска: 2014
Производство: Китай, США, Франция
Жанр: Боевик, Приключения
Язык: Английский
Перевод: Отсутствует
Субтитры: Отсутствуют
Дата мировой премьеры: 26 сентября 2014
Режиссер: Ник Пауэлл
Продюсер: Джереми Болт, Тоув Кристенсен, Леонард Гловински
Актеры: Николас Кейдж, Хейден Кристенсен, Лю Ифэй, Рон Смуренбург, Энди Он Джавед, Эль Берни
Описание фильма:
Действие происходит в Китае в десятом веке, и в центре истории — воин, который, чтобы вернуть доверие, вызывается спасти принцессу.

Продолжительность: 01:38:39
Качество видео: WEB-DL
Видеокодек: Xvid
Битрейт видео: ~3797 Кбит/сек
Размер кадра: 1280x540
Аудиокодек: AC3 5.1
Битрейт аудио: 384 Кбит/сек, 6 ch

Mediainfo:

Общее
Полное имя                               : D:\FILMЬl\CORRECED FOR NNM\Outcast.2014.720p.WEB-DL.avi
Формат                                   : AVI
Формат/Информация                        : Audio Video Interleave
Профиль формата                          : OpenDML
Размер файла                             : 2,89 Гбайт
Продолжительность                        : 1 ч. 38 м.
Общий поток                              : 4192 Кбит/сек
Название фильма                          : RARBG.COM - Outcast.2014.720p.WEB-DL.XviD.AC3-RARBG
Библиотека кодирования                   : VirtualDub build 35491/release
Примечание                               : RARBG.COM - Outcast.2014.720p.WEB-DL.XviD.AC3-RARBG
Видео
Идентификатор                            : 0
Формат                                   : MPEG-4 Visual
Профиль формата                          : [email protected]
Параметр BVOP формата                    : Нет
Параметр QPel формата                    : Нет
Параметр GMC формата                     : Без точки перехода
Параметр матрицы формата                 : Default (H.263)
Идентификатор кодека                     : XVID
Идентификатор кодека/Подсказка           : XviD
Продолжительность                        : 1 ч. 38 м.
Битрейт                                  : 3797 Кбит/сек
Ширина                                   : 1280 пикселей
Высота                                   : 540 пикселей
Соотношение сторон                       : 2,40:1
Частота кадров                           : 23,976 кадра/сек
Цветовое пространство                    : YUV
Субдискретизация насыщенности            : 4:2:0
Битовая глубина                          : 8 бит
Тип развёртки                            : Прогрессивная
Метод сжатия                             : С потерями
Бит/(Пиксели*Кадры)                      : 0.229
Размер потока                            : 2,62 Гбайт (91%)
Библиотека кодирования                   : Lavc56.13.100
Аудио
Идентификатор                            : 1
Формат                                   : AC-3
Формат/Информация                        : Audio Coding 3
Расширение режима                        : CM (complete main)
Параметр Endianness формата              : Big
Идентификатор кодека                     : 2000
Продолжительность                        : 1 ч. 38 м.
Вид битрейта                             : Постоянный
Битрейт                                  : 384 Кбит/сек
Каналы                                   : 6 каналов
Расположение каналов                     : Front: L C R, Side: L R, LFE
Частота                                  : 48,0 КГц
Битовая глубина                          : 16 бит
Метод сжатия                             : С потерями
Размер потока                            : 271 Мбайт (9%)
Выравнивание                             : Соединение по промежуткам
Продолжительность промежутка             : 42  мс. (1,00 видеокадр)
Время предзагрузки промежутка            : 512  мс.
Скриншоты:
-Время раздачи: 24/7 до 5 скачавших
Яндекс.Метрика
Рейтинг@Mail.ru