Исчезнувшая / Gone Girl (Дэвид Финчер / David Fincher) [2014 г., триллер, драма, детектив, BDRip-AVC] Dub [Лицензия] + Dub (Ukr) + Original (Eng) + Sub (Rus/Ukr/Eng)

 

Создавать темы 20-Дек-2014 17:07

-Исчезнувшая / Gone Girl--
Производство: США; Artemple - Hollywood, New Regency Pictures, Pacific Standard, Regency Enterprises
Год выпуска: 2014 г.
Жанр: триллер, драма, детектив
Продолжительность: 02:29:01
Мировая премьера: 26 сентября 2014
Российская премьера: 2 октября 2014, «Двадцатый Век Фокс СНГ»
Дата выхода Blu-Ray: 31 декабря 2014, «Двадцатый Век Фокс СНГ»
Перевод: Профессиональный (полное дублирование) [Лицензия]
Оригинальный аудиопоток: английский
Режиссер: Дэвид Финчер / David Fincher-В ролях:
Бен Аффлек, Розамунд Пайк, Нил Патрик Харрис, Мисси Пайл, Скут МакНэйри, Кэрри Кун, Тайлер Перри, Ли Норрис, Бойд Холбрук, Патрик Фьюджит-Описание:
Все было готово для празднования пятилетнего юбилея супружеской жизни, когда вдруг необъяснимо пропал один из виновников торжества. Остались следы борьбы в доме, кровь, которую явно пытались стереть, — и цепочка «ключей» в игре под названием «охота за сокровищами»; красивая, умная и невероятно изобретательная жена ежегодно устраивала ее для своего обожаемого мужа. И похоже, что эти «ключи» — размещенные ею тут и там странные записки и не менее странные безделушки — дают единственный шанс пролить свет на судьбу исчезнувшей. Вот только не придется ли «охотнику» в процессе поиска раскрыть миру и пару-тройку собственных малосимпатичных тайн?
-
Качество видео: BDRip-AVC
Контейнер: MKV
Видео кодек: MPEG4/AVC
Аудио кодек: AC3
Видео: 1024x424; 2015 kbps; 23,976 fps
Аудио #1: 448 Kbps; 6 ch; 48.0 kHz (Rus)
Аудио #2: 448 Kbps; 6 ch; 48.0 kHz (Ukr)
Аудио #3: 448 Kbps; 6 ch; 48.0 kHz (Eng)
Cубтитры: русские, украинские, английские

Media Info

General
Unique ID : 253846130392776398820273817845569413519 (0xBEF8FC8356008468A15B99594B63E18F)
Complete name : D:\Gone.Girl.2014.BDRip-AVC.mkv
Format : Matroska
Format version : Version 4 / Version 2
File size : 3.50 GiB
Duration : 2h 29mn
Overall bit rate : 3 362 Kbps
Movie name : Gone Girl (2014)
Encoded date : UTC 2014-12-20 12:40:37
Writing application : mkvmerge v7.4.0 ('Circles') 64bit built on Dec 12 2014 12:19:56
Writing library : libebml v1.3.0 + libmatroska v1.4.1
Attachements : Cover.jpg
DURATION : 02:29:01.984000000
NUMBER_OF_FRAMES : 279437
NUMBER_OF_BYTES : 500751104
_STATISTICS_WRITING_APP : mkvmerge v7.4.0 ('Circles') 64bit built on Dec 12 2014 12:19:56
_STATISTICS_WRITING_DATE_UTC : 2014-12-20 12:40:37
_STATISTICS_TAGS : BPS DURATION NUMBER_OF_FRAMES NUMBER_OF_BYTES
Video
ID : 1
Format : AVC
Format/Info : Advanced Video Codec
Format profile : [email protected]
Format settings, CABAC : Yes
Format settings, ReFrames : 5 frames
Codec ID : V_MPEG4/ISO/AVC
Duration : 2h 29mn
Bit rate : 2 015 Kbps
Width : 1 024 pixels
Height : 424 pixels
Display aspect ratio : 2.40:1
Original display aspect ratio : 2.40:1
Frame rate mode : Constant
Frame rate : 23.976 fps
Color space : YUV
Chroma subsampling : 4:2:0
Bit depth : 8 bits
Scan type : Progressive
Bits/(Pixel*Frame) : 0.194
Stream size : 2.03 GiB (58%)
Writing library : x264 core 142 r2479kMod dd79a61
Encoding settings : cabac=1 / ref=6 / deblock=1:0:0 / analyse=0x3:0x133 / me=umh / subme=10 / psy=1 / fade_compensate=0.00 / psy_rd=1.00:0.00 / mixed_ref=1 / me_range=24 / chroma_me=1 / trellis=2 / 8x8dct=1 / cqm=0 / deadzone=21,11 / fast_pskip=1 / chroma_qp_offset=-2 / threads=8 / lookahead_threads=1 / sliced_threads=0 / nr=0 / decimate=1 / interlaced=0 / bluray_compat=1 / constrained_intra=0 / fgo=0 / bframes=3 / b_pyramid=1 / b_adapt=2 / b_bias=0 / direct=3 / weightb=1 / open_gop=0 / weightp=1 / keyint=240 / keyint_min=1 / scenecut=40 / intra_refresh=0 / rc_lookahead=60 / rc=2pass / mbtree=1 / bitrate=2015 / ratetol=1.0 / qcomp=0.60 / qpmin=0 / qpmax=69 / qpstep=4 / cplxblur=20.0 / qblur=0.5 / ip_ratio=1.40 / aq=1:1.00
Default : Yes
Forced : No
DURATION : 02:29:01.641000000
NUMBER_OF_FRAMES : 214385
NUMBER_OF_BYTES : 2252002742
_STATISTICS_WRITING_APP : mkvmerge v7.4.0 ('Circles') 64bit built on Dec 12 2014 12:19:56
_STATISTICS_WRITING_DATE_UTC : 2014-12-20 12:40:37
_STATISTICS_TAGS : BPS DURATION NUMBER_OF_FRAMES NUMBER_OF_BYTES
Audio #1
ID : 2
Format : AC-3
Format/Info : Audio Coding 3
Mode extension : CM (complete main)
Format settings, Endianness : Big
Codec ID : A_AC3
Duration : 2h 29mn
Bit rate mode : Constant
Bit rate : 448 Kbps
Channel(s) : 6 channels
Channel positions : Front: L C R, Side: L R, LFE
Sampling rate : 48.0 KHz
Bit depth : 16 bits
Compression mode : Lossy
Stream size : 478 MiB (13%)
Title : DD 5.1 @ 448 kbps; BD EUR
Language : Russian
Default : Yes
Forced : No
Audio #2
ID : 3
Format : AC-3
Format/Info : Audio Coding 3
Mode extension : CM (complete main)
Format settings, Endianness : Big
Codec ID : A_AC3
Duration : 2h 29mn
Bit rate mode : Constant
Bit rate : 448 Kbps
Channel(s) : 6 channels
Channel positions : Front: L C R, Side: L R, LFE
Sampling rate : 48.0 KHz
Bit depth : 16 bits
Compression mode : Lossy
Stream size : 478 MiB (13%)
Title : DD 5.1 @ 448 kbps; BD EUR
Language : Ukrainian
Default : No
Forced : No
Audio #3
ID : 4
Format : AC-3
Format/Info : Audio Coding 3
Mode extension : CM (complete main)
Format settings, Endianness : Big
Codec ID : A_AC3
Duration : 2h 29mn
Bit rate mode : Constant
Bit rate : 448 Kbps
Channel(s) : 6 channels
Channel positions : Front: L C R, Side: L R, LFE
Sampling rate : 48.0 KHz
Bit depth : 16 bits
Compression mode : Lossy
Stream size : 478 MiB (13%)
Title : DD 5.1 @ 448 kbps; BD EUR
Language : English
Default : No
Forced : No
Text #1
ID : 5
Format : UTF-8
Codec ID : S_TEXT/UTF8
Codec ID/Info : UTF-8 Plain Text
Language : Russian
Default : No
Forced : No
Text #2
ID : 6
Format : UTF-8
Codec ID : S_TEXT/UTF8
Codec ID/Info : UTF-8 Plain Text
Language : Ukrainian
Default : No
Forced : No
Text #3
ID : 7
Format : UTF-8
Codec ID : S_TEXT/UTF8
Codec ID/Info : UTF-8 Plain Text
Language : English
Default : No
Forced : No
Menu
00:00:00.000 : en:00:00:00.000
00:03:27.958 : en:00:03:27.958
00:06:57.834 : en:00:06:57.834
00:08:19.541 : en:00:08:19.541
00:11:58.593 : en:00:11:58.593
00:15:01.484 : en:00:15:01.484
00:18:13.509 : en:00:18:13.509
00:19:56.737 : en:00:19:56.737
00:21:43.093 : en:00:21:43.093
00:23:53.849 : en:00:23:53.849
00:28:34.880 : en:00:28:34.880
00:31:32.516 : en:00:31:32.516
00:34:39.077 : en:00:34:39.077
00:40:51.199 : en:00:40:51.199
00:44:37.383 : en:00:44:37.383
00:46:57.815 : en:00:46:57.815
00:49:19.707 : en:00:49:19.707
00:54:13.333 : en:00:54:13.333
01:00:06.686 : en:01:00:06.686
01:03:16.209 : en:01:03:16.209
01:06:08.715 : en:01:06:08.715
01:12:56.998 : en:01:12:56.998
01:15:13.008 : en:01:15:13.008
01:19:54.456 : en:01:19:54.456
01:21:56.120 : en:01:21:56.120
01:27:24.156 : en:01:27:24.156
01:28:12.537 : en:01:28:12.537
01:33:28.561 : en:01:33:28.561
01:39:34.510 : en:01:39:34.510
01:46:26.714 : en:01:46:26.714
01:50:46.515 : en:01:50:46.515
01:56:40.619 : en:01:56:40.619
01:59:06.097 : en:01:59:06.097
02:02:23.127 : en:02:02:23.127
02:05:35.069 : en:02:05:35.069
02:12:30.818 : en:02:12:30.818
02:16:12.790 : en:02:16:12.790
02:19:56.930 : en:02:19:56.930
02:22:42.304 : en:02:22:42.304
02:24:15.647 : en:02:24:15.647
Яндекс.Метрика
Рейтинг@Mail.ru