День дурака (Александр Баранов) [2014, Комедия, Приключения, DVDRip]

 

Создавать темы 19-Дек-2014 17:58

День дурака«Мы отыграемся по полной»- Год выпуска: 2014
Производство: Россия / Базелевс Продакшн
Жанр: Комедия, Приключения
Режиссер: Александр Баранов
Продюсер: Тимур Бекмамбетов, Мария Затуловская, Сюзанна Муазен
Актеры: Алексей Веселкин, Александр Лыков, Светлана Чуйкина, Сергей Беляев, Сергей Удовик, Александр Воробьев, Игорь Кистол, Дмитрий Белоцерковский, Антон Васильев, Антонина Дивина
Премьера (мир): 13 ноября 2014
Премьера (РФ): 13 ноября 2014, «Bazelevs Distribution»
Продолжительность: 01:30:15
Описание фильма:
Ванька работает швейцаром в гостинице. Он ненавидит ее обеспеченных постояльцев, но при этом мечтает пожить их роскошной жизнью. А пока вынужден жить в машине, купленной в кредит, так как из съемной квартиры его выгнали за неуплату.
В этой и без того непростой ситуации на голову парня сваливается коллектор Сергей Сергеевич, который твердо решил выбить из Ваньки долг. Чтобы хоть как-то отсрочить расправу, Ванька выдает себя за сына богатого фермера, который с легкостью погасит кредит.
Но по дороге на ферму попутчики поневоле попадают в аварию, которая оборачивается для Ваньки неожиданным спасением. Нечистый на руку мэр провинциального городка и вороватые сотрудники его администрации принимают московских гостей за представителей Следственного комитета.
Вчерашнего швейцара ждет королевский прием и взятка в виде руки и сердца мэрской дочки… или скандальное разоблачение.-
Качество видео: DVDRip
Формат: AVI
Видеокодек: XviD
Аудиокодек: AC-3
Видео: MPEG-4 Visual at 1950 Кбит/сек: 720 x 304 (2.368) at 25.000 fps, 0.36 Бит/Пиксели
Аудио: AC-3 at 448 Кбит/сек: 6 каналов, 48,0 КГц
Субтитры: Отсутствуют
-

MediaInfo:

Общее
Полное имя : E:\uTorDown\uTorrent\Den.duraka.2014.O.DVDRip.1.46Gb.avi
Формат : AVI
Формат/Информация : Audio Video Interleave
Размер файла : 1,46 Гбайт
Продолжительность : 1 ч. 26 м.
Общий поток : 2407 Кбит/сек
Программа кодирования : VirtualDubMod 1.5.10.3 | www.virtualdub-fr.org || (build 2550/release)
Библиотека кодирования : VirtualDubMod build 2550/release
Видео
Идентификатор : 0
Формат : MPEG-4 Visual
Профиль формата : Advanced [email protected]
Параметр BVOP формата : 1
Параметр QPel формата : Нет
Параметр GMC формата : Без точки перехода
Параметр матрицы формата : Выборочная
Идентификатор кодека : XVID
Идентификатор кодека/Подсказка : XviD
Продолжительность : 1 ч. 26 м.
Битрейт : 1950 Кбит/сек
Ширина : 720 пикселей
Высота : 304 пикселя
Соотношение сторон : 2,35:1
Частота кадров : 25,000 кадров/сек
Цветовое пространство : YUV
Субдискретизация насыщенности : 4:2:0
Битовая глубина : 8 бит
Тип развёртки : Прогрессивная
Метод сжатия : С потерями
Бит/(Пиксели*Кадры) : 0.356
Размер потока : 1,18 Гбайт (81%)
Библиотека кодирования : XviD 73
Аудио
Идентификатор : 1
Формат : AC-3
Формат/Информация : Audio Coding 3
Расширение режима : CM (complete main)
Параметр Endianness формата : Big
Идентификатор кодека : 2000
Продолжительность : 1 ч. 26 м.
Вид битрейта : Постоянный
Битрейт : 448 Кбит/сек
Каналы : 6 каналов
Расположение каналов : Front: L C R, Side: L R, LFE
Частота : 48,0 КГц
Битовая глубина : 16 бит
Метод сжатия : С потерями
Размер потока : 278 Мбайт (19%)
Выравнивание : Разделение по промежуткам
Продолжительность промежутка : 40 мс. (1,00 видеокадр)
Время предзагрузки промежутка : 500 мс.
Скриншоты:
-

Создавать темы 23-Дек-2014 13:20 (спустя 3 дня)

Классный фильм мне понравился
Яндекс.Метрика
Рейтинг@Mail.ru