Несносные боссы 2 / Horrible Bosses 2 (Шон Андерс / Sean Anders) [2014 г., комедия, WEBRip] Dub (Чистый звук)

 

Создавать темы 19-Дек-2014 17:03

-Несносные боссы 2 / Horrible Bosses 2- Производство: США
Год выпуска: 2014 г.
Жанр: комедия
Продолжительность: 01:48:21
Мировая премьера: 12 ноября 2014
Российская премьера: 27 ноября 2014, «Каро-Премьер»
Дата выхода DVD: 26 марта 2015, «CP Дистрибуция»
Дата выхода Blu-Ray: 26 марта 2015, «CP Дистрибуция»
Перевод: Профессиональный (полное дублирование) [Чистый звук]-Режиссер: Шон Андерс / Sean Anders
В ролях: Джейсон Бейтман, Джейсон Судейкис, Чарли Дэй, Крис Пайн, Дженнифер Энистон, Кристоф Вальц, Джейми Фокс, Кевин Спейси, Джонатан Бэнкс, Линдсей Слоун-Описание: Ник, Дэйл и Курт решают сами стать боссами и открывают собственный бизнес. Но инвестор кидает их. Тогда они решают похитить его взрослого сына, чтобы получить выкуп и вернуть себе контроль над компанией.- -Качество видео: WEBRip
Контейнер: AVI
Видео кодек: XviD
Аудио кодек: AC3
Видео: 720x304 (2.37:1), 30 fps, XviD build 50 ~1665 kbps avg, 0.25 bit/pixel
Аудио: 48 kHz, AC3 Dolby Digital, 2/0 (L,R) ch, ~192 kbps
Cубтитры: китайские
Формат субтитров: hardsub (неотключаемые)

Media Info

General
Complete name : C:\Users\Ivan\Desktop\Horrible.Bosses.2.2014.WEBRip.avi
Format : AVI
Format/Info : Audio Video Interleave
File size : 1.41 GiB
Duration : 1h 48mn
Overall bit rate : 1 869 Kbps
Movie name : Несносные боссы 2
Director : http://pirat.ca/
Genre : Comedy
Writing application : VirtualDubMod 1.5.10.2 (build 2540/release)
Original source form/Name : Movie
Video
ID : 0
Format : MPEG-4 Visual
Format profile : Advanced [email protected]
Format settings, BVOP : 2
Format settings, QPel : No
Format settings, GMC : No warppoints
Format settings, Matrix : Default (MPEG)
Codec ID : XVID
Codec ID/Hint : XviD
Duration : 1h 48mn
Bit rate : 1 666 Kbps
Width : 720 pixels
Height : 304 pixels
Display aspect ratio : 2.35:1
Frame rate : 30.000 fps
Color space : YUV
Chroma subsampling : 4:2:0
Bit depth : 8 bits
Scan type : Progressive
Compression mode : Lossy
Bits/(Pixel*Frame) : 0.254
Stream size : 1.26 GiB (89%)
Writing library : XviD 1.2.1 (UTC 2008-12-04)
Audio
ID : 1
Format : AC-3
Format/Info : Audio Coding 3
Mode extension : CM (complete main)
Format settings, Endianness : Big
Codec ID : 2000
Duration : 1h 48mn
Bit rate mode : Constant
Bit rate : 192 Kbps
Channel(s) : 2 channels
Channel positions : Front: L R
Sampling rate : 48.0 KHz
Bit depth : 16 bits
Compression mode : Lossy
Stream size : 149 MiB (10%)
Alignment : Split accross interleaves
Interleave, duration : 33 ms (1.00 video frame)
Interleave, preload duratio : 500 ms

Скриншоты

Яндекс.Метрика
Рейтинг@Mail.ru