[ Сегодня на трекере фрилич! Идет свободное скачивание без начисления Download ]

Прощайте, доктор Фрейд (Марина Мигунова) [2004 г., комедия, DVDRip]

 

Создавать темы 19-Дек-2014 16:26

-Прощайте, доктор Фрейд-- Производство: Россия
Год выпуска: 2004 г.
Жанр: комедия
Продолжительность: 01:44:45-Режиссер: Марина Мигунова-В ролях: Юлия Рутберг, Илья Древнов, Ирина Гринёва, Сергей Чонишвили, Олег Леушин, Александра Назарова, Леонид Громов, Елена Полякова, Виталий Гогунский, Вадим Михалев, Алан Ужегов, Николай Рябков, Татьяна Каширина, Михаил Станкевич, Михаил Шелухин-Описание: До Нового года остаются считанные дни, когда герой фильма, арестованный по ложному доносу, выходит на свободу. Далее события искрометной комедии развиваются в стиле детектива.
В конце концов, герою удается разоблачить злоумышленника. Но важнее другое: выясняется, что законы любви сильнее методов психоанализа, благодаря чему новогодняя ночь для всех оказывается счастливой…- -Качество видео: DVDRip
Контейнер: AVI
Видео кодек: XviD
Аудио кодек: AC3
Видео: 640x400, 25 fps, 1414 kbps avg, 0.221 bit/pixel
Аудио: 48 kHz, AC3 Dolby Digital, 3/2 (L,C,R,l,r) + LFE ch, ~448.00 kbps avg
Cубтитры: отсутствуют-

Media Info

Общее
Полное имя : C:\Users\Ромик\Pictures\Прощайте, доктор Фрейд\Прощайте, доктор Фрейд.avi
Формат : AVI
Формат/Информация : Audio Video Interleave
Размер файла : 1,37 Гбайт
Продолжительность : 1 ч. 44 м.
Общий поток : 1869 Кбит/сек
Программа кодирования : VirtualDubMod 1.5.4.1 (build 2178/release)
Примечание : 12.01.2007
Видео
Идентификатор : 0
Формат : MPEG-4 Visual
Профиль формата : Advanced [email protected]
Параметр BVOP формата : 1
Параметр QPel формата : Нет
Параметр GMC формата : Без точки перехода
Параметр матрицы формата : Выборочная
Идентификатор кодека : XVID
Идентификатор кодека/Подсказка : XviD
Продолжительность : 1 ч. 44 м.
Битрейт : 1414 Кбит/сек
Ширина : 640 пикселей
Высота : 400 пикселей
Соотношение сторон : 16:10
Частота кадров : 25,000 кадров/сек
Цветовое пространство : YUV
Субдискретизация насыщенности : 4:2:0
Битовая глубина : 8 бит
Тип развёртки : Прогрессивная
Метод сжатия : С потерями
Бит/(Пиксели*Кадры) : 0.221
Размер потока : 1,03 Гбайт (76%)
Библиотека кодирования : XviD 1.2.0.dev47 (UTC 2006-11-01)
Аудио
Идентификатор : 1
Формат : AC-3
Формат/Информация : Audio Coding 3
Расширение режима : CM (complete main)
Параметр Endianness формата : Big
Идентификатор кодека : 2000
Продолжительность : 1 ч. 44 м.
Вид битрейта : Постоянный
Битрейт : 448 Кбит/сек
Каналы : 6 каналов
Расположение каналов : Front: L C R, Side: L R, LFE
Частота : 48,0 КГц
Битовая глубина : 16 бит
Метод сжатия : С потерями
Размер потока : 336 Мбайт (24%)
Выравнивание : Разделение по промежуткам
Продолжительность промежутка : 96 мс. (2,40 видеокадра)
Время предзагрузки промежутка : 96 мс.
-

Скриншоты

-
Яндекс.Метрика
Рейтинг@Mail.ru