Великий уравнитель / The Equalizer (Антуан Фукуа / Antoine Fuqua) [2014 г., боевик, криминал, триллер, BDRip, 720p] Dub [Лицензия] + Dub (Ukr) + Original (Eng) + Sub (Rus/Ukr/Eng)

 

Создавать темы 19-Дек-2014 16:17

-Великий уравнитель / The Equalizer--
Производство: США
Год выпуска: 2014 г.
Жанр: боевик, криминал, триллер
Продолжительность: 02:12:02
Мировая премьера: 7 сентября 2014
Российская премьера: 25 сентября 2014, «WDSSPR»
Дата выхода DVD: 15 января 2015, «CP Дистрибуция»
Перевод #1: Профессиональный (полное дублирование) [Лицензия]
Оригинальный аудиопоток: английский
Режиссер: Антуан Фукуа / Antoine Fuqua-В ролях:
Дензел Вашингтон, Мартон Чокаш, Хлоя Грейс Морец, Дэвид Харбор, Хейли Беннетт, Билл Пуллман, Мелисса Лео, Дэвид Мюнье, Джонни Скуртис, Алекс Видов-Описание:
Роберт МакКолл — бывший спецназовец. После увольнения со службы он собирается начать нормальную мирную жизнь, дав себе обещание, больше никогда не брать в руки оружия. Но в один прекрасный момент он встречает молодую девушку, зарабатывающую на жизнь проституцией, которую на его глазах избивают бандиты и увозят в неизвестном направлении. Тогда он решает отыскать ее, после чего вступает в неравную схватку с русской мафией и продажными агентами ЦРУ. Ради справедливости он готов нарушить собственное обещание и применить оружие против людей, которые просто не заслуживают жить в этом мире…
-
Качество видео: BDRip
Контейнер: MKV
Стандарт разрешения: 720p
Видео кодек: MPEG4/AVC
Аудио кодек: AC3
Видео: 1280x534; 5500 kbps; 23.976 fps
Аудио #1: 640 kbps; 6 ch; 48.0 kHz (Rus)
Аудио #2: 640 kbps; 6 ch; 48.0 kHz (Ukr)
Аудио #3: 640 kbps; 6 ch; 48.0 kHz (Eng)
Субтитры: Русские (forced, full); Украинские (forced); Английские (forced, full)

Media Info

General
Unique ID : 209302675648888033359423176702361466554 (0x9D763AA2D74ADF6383400E5DE555F6BA)
Complete name : D:\The.Equalizer.2014.BDRip.720p.mkv
Format : Matroska
Format version : Version 4 / Version 2
File size : 6.85 GiB
Duration : 2h 12mn
Overall bit rate : 7 423 Kbps
Movie name : The Equalizer (2014)
Encoded date : UTC 2014-12-19 12:28:34
Writing application : mkvmerge v7.4.0 ('Circles') 64bit built on Dec 12 2014 12:19:56
Writing library : libebml v1.3.0 + libmatroska v1.4.1
DURATION : 02:10:52.490000000
NUMBER_OF_FRAMES : 1549
NUMBER_OF_BYTES : 51142
_STATISTICS_WRITING_APP : mkvmerge v7.4.0 ('Circles') 64bit built on Dec 12 2014 12:19:56
_STATISTICS_WRITING_DATE_UTC : 2014-12-19 12:28:34
_STATISTICS_TAGS : BPS DURATION NUMBER_OF_FRAMES NUMBER_OF_BYTES
Video
ID : 1
Format : AVC
Format/Info : Advanced Video Codec
Format profile : [email protected]
Format settings, CABAC : Yes
Format settings, ReFrames : 8 frames
Codec ID : V_MPEG4/ISO/AVC
Duration : 2h 12mn
Bit rate : 5 500 Kbps
Width : 1 280 pixels
Height : 534 pixels
Display aspect ratio : 2.40:1
Frame rate mode : Constant
Frame rate : 23.976 fps
Color space : YUV
Chroma subsampling : 4:2:0
Bit depth : 8 bits
Scan type : Progressive
Bits/(Pixel*Frame) : 0.336
Stream size : 4.94 GiB (72%)
Writing library : x264 core 142 r2491kMod 24e4fed
Encoding settings : cabac=1 / ref=9 / deblock=1:-3:-2 / analyse=0x3:0x113 / me=umh / subme=11 / psy=1 / fade_compensate=0.00 / psy_rd=1.00:0.00 / mixed_ref=1 / me_range=32 / chroma_me=1 / trellis=2 / 8x8dct=1 / cqm=0 / deadzone=21,11 / fast_pskip=1 / chroma_qp_offset=-4 / threads=6 / lookahead_threads=1 / sliced_threads=0 / nr=0 / decimate=1 / interlaced=0 / bluray_compat=0 / constrained_intra=0 / fgo=0 / bframes=12 / b_pyramid=1 / b_adapt=2 / b_bias=0 / direct=3 / weightb=1 / open_gop=0 / weightp=2 / keyint=230 / keyint_min=23 / scenecut=40 / intra_refresh=0 / rc_lookahead=40 / rc=2pass / mbtree=0 / bitrate=5500 / ratetol=1.0 / qcomp=0.76 / qpmin=0 / qpmax=69 / qpstep=4 / cplxblur=20.0 / qblur=0.5 / vbv_maxrate=50000 / vbv_bufsize=62500 / nal_hrd=none / filler=0 / ip_ratio=1.40 / pb_ratio=1.30 / aq=2:0.90 / zones=0,183000,b=1.14/183001,185002,b=0.36/185003,189959,b=0.28
Default : Yes
Forced : No
DURATION : 02:12:02.915000000
NUMBER_OF_FRAMES : 189960
NUMBER_OF_BYTES : 5447116194
_STATISTICS_WRITING_APP : mkvmerge v7.4.0 ('Circles') 64bit built on Dec 12 2014 12:19:56
_STATISTICS_WRITING_DATE_UTC : 2014-12-19 12:28:34
_STATISTICS_TAGS : BPS DURATION NUMBER_OF_FRAMES NUMBER_OF_BYTES
Audio #1
ID : 2
Format : AC-3
Format/Info : Audio Coding 3
Mode extension : CM (complete main)
Format settings, Endianness : Big
Codec ID : A_AC3
Duration : 2h 12mn
Bit rate mode : Constant
Bit rate : 640 Kbps
Channel(s) : 6 channels
Channel positions : Front: L C R, Side: L R, LFE
Sampling rate : 48.0 KHz
Bit depth : 16 bits
Compression mode : Lossy
Stream size : 604 MiB (9%)
Title : АС3 5.1 @ 640 kbps - Dub, BD EUR
Language : Russian
Default : Yes
Forced : No
DURATION : 02:12:02.912000000
NUMBER_OF_FRAMES : 247591
NUMBER_OF_BYTES : 633832960
_STATISTICS_WRITING_APP : mkvmerge v7.4.0 ('Circles') 64bit built on Dec 12 2014 12:19:56
_STATISTICS_WRITING_DATE_UTC : 2014-12-19 12:28:34
_STATISTICS_TAGS : BPS DURATION NUMBER_OF_FRAMES NUMBER_OF_BYTES
Audio #2
ID : 3
Format : AC-3
Format/Info : Audio Coding 3
Mode extension : CM (complete main)
Format settings, Endianness : Big
Codec ID : A_AC3
Duration : 2h 12mn
Bit rate mode : Constant
Bit rate : 640 Kbps
Channel(s) : 6 channels
Channel positions : Front: L C R, Side: L R, LFE
Sampling rate : 48.0 KHz
Bit depth : 16 bits
Compression mode : Lossy
Stream size : 604 MiB (9%)
Title : АС3 5.1 @ 640 kbps - Dub, BD EUR
Language : Ukrainian
Default : No
Forced : No
Audio #3
ID : 4
Format : AC-3
Format/Info : Audio Coding 3
Mode extension : CM (complete main)
Format settings, Endianness : Big
Codec ID : A_AC3
Duration : 2h 12mn
Bit rate mode : Constant
Bit rate : 640 Kbps
Channel(s) : 6 channels
Channel positions : Front: L C R, Side: L R, LFE
Sampling rate : 48.0 KHz
Bit depth : 16 bits
Compression mode : Lossy
Delay relative to video : 78ms
Stream size : 604 MiB (9%)
Language : English
Default : No
Forced : No
Text #1
ID : 5
Format : UTF-8
Codec ID : S_TEXT/UTF8
Codec ID/Info : UTF-8 Plain Text
Title : Forced
Language : Russian
Default : Yes
Forced : No
Text #2
ID : 6
Format : UTF-8
Codec ID : S_TEXT/UTF8
Codec ID/Info : UTF-8 Plain Text
Title : Full, BD
Language : Russian
Default : No
Forced : No
Text #3
ID : 7
Format : UTF-8
Codec ID : S_TEXT/UTF8
Codec ID/Info : UTF-8 Plain Text
Title : Forced
Language : Ukrainian
Default : No
Forced : No
Text #4
ID : 8
Format : UTF-8
Codec ID : S_TEXT/UTF8
Codec ID/Info : UTF-8 Plain Text
Title : Forced
Language : English
Default : No
Forced : No
Text #5
ID : 9
Format : UTF-8
Codec ID : S_TEXT/UTF8
Codec ID/Info : UTF-8 Plain Text
Title : Full SDH
Language : English
Default : No
Forced : No
Menu
00:00:00.000 : en:1
00:06:48.000 : en:2
00:13:01.000 : en:3
00:20:53.000 : en:4
00:25:46.000 : en:5
00:35:23.000 : en:6
00:46:28.000 : en:7
00:55:39.000 : en:8
01:03:54.000 : en:9
01:13:47.000 : en:10
01:20:52.000 : en:11
01:31:02.000 : en:12
01:38:30.000 : en:13
01:47:21.000 : en:14
01:55:30.000 : en:15
01:59:53.000 : en:16
Яндекс.Метрика
Рейтинг@Mail.ru