Братаны 4 (2014, боевик, детектив) WEB-DLRip [Владимир Виноградов] (серии 1-32 из 32+Послесловие)

 

Создавать темы 17-Дек-2014 14:08

-Братаны 4 (2014) WEB-DLRip [H.264] (серии 1-32 из 32) - Год выпуска: 2014
Жанр: боевик, детектив
Выпущено: Мостелефильм
Режиссер: Владимир Виноградов
Актеры: Алексей Кравченко, Сергей Селин, Антон Хабаров, Даниил Воробьёв, Дарья Калмыкова, Надежда Борисова, Владимир Кебин, Денис Карасёв, Игорь Миркурбанов, Руслан Хабибуллов, Александр Лаптий и др.
Описание фильма:
Четверо друзей-десантников, не раз вместе проходивших и огонь и воду, в обыденной жизни не могут найти себя. Бытовые и семейные проблемы, кажется, вот-вот дадут трещину их многолетней дружбе… И только случайная встреча Макара Крылова с особо опасным преступником Юрием Журбиным помогает братанам вновь сплотиться, чтобы помочь попавшему в беду товарищу.
По долгу службы Макар пытается задержать Журбина, который числится в федеральном розыске. Ловкий и изворотливый бандит рассчитывает скрыться, берет заложника и в итоге… погибает. Так срывается совместная операция МВД и ФСБ: спецслужбы долгое время вели Юрка, чтобы выйти на его контакты. Начальство Макара, который и не догадывался о слежке за Журбиным, приходит в ярость и переводит полицейского в маленький приморский городок.

Продолжительность: ~00:45:00 серия
Качество видео: WEB-DLRip
Видеокодек: MPEG-4 AVC/H.264
Формат: MKV
Битрейт видео: ~ 2000 kbps
Размер кадра: 1024x576
Аудиокодек: AC3 2.0
Битрейт аудио: 192 kbps, 2 ch

Mediainfo:

Общее
Уникальный идентификатор : 253587517805978707953991172531100960671 (0xBEC72DED963747BEA92EF6923489C79F)
Полное имя : D:\Братаны 4 WEBDL\Братаны 4 01_серия_WEBDL.mkv
Формат : Matroska
Размер файла : 727 Мбайт
Продолжительность : 46 м.
Общий поток : 2189 Кбит/сек
Название фильма : Bratany-4.(01.seriya.iz.32).2014.WEB-DLRip.(AVC).MediaClub
Дата кодирования : UTC 2014-04-14 19:42:40
Программа кодирования : mkvmerge v6.3.0 ('You can't stop me!') built on Jun 28 2013 20:09:41
Библиотека кодирования : libebml v1.3.0 + libmatroska v1.4.0
Видео
Идентификатор : 1
Формат : AVC
Формат/Информация : Advanced Video Codec
Профиль формата : [url=mailto:[email protected]][email protected][/url]
Параметр CABAC формата : Да
Параметр ReFrames формата : 2 кадра
Идентификатор кодека : V_MPEG4/ISO/AVC
Продолжительность : 46 м.
Вид битрейта : Постоянный
Битрейт : 2000 Кбит/сек
Ширина : 1024 пикс.
Высота : 576 пикс.
Соотношение сторон : 16:9
Частота кадров : 25,000 кадр/сек
Цветовое пространство : YUV
Подвыборка цветности : 4:2:0
Битовая глубина : 8 бит
Тип развёртки : Прогрессивная
Бит/(Пиксели*Кадры) : 0.136
Размер потока : 648 Мбайт (89%)
Аудио
Идентификатор : 2
Формат : AC-3
Формат/Информация : Audio Coding 3
Расширение режима : CM (complete main)
Идентификатор кодека : A_AC3
Продолжительность : 46 м.
Вид битрейта : Постоянный
Битрейт : 192 Кбит/сек
Каналы : 2 канала
Расположение каналов : Front: L R
Частота : 48,0 КГц
Битовая глубина : 16 бит
Метод сжатия : С потерями
Размер потока : 63,7 Мбайт (9%)
Язык : Russian
Скриншоты:
Яндекс.Метрика
Рейтинг@Mail.ru