Санта Мяус / Santa Claws (2014) HDRip [VO]

 

Создавать темы 15-Дек-2014 17:18

- Санта Мяус / Santa Claws (2014) HDRip- Русское название: Санта Мяус
Оригинальное название: Santa Claws
Год выпуска: 2014
Жанр: Комедия, семейный
Выпущено: США, The Asylum
Описание:
В детстве Джулия разуверилась в Рождестве и по сей день не даёт своему сыну отмечать его, мол это придумали производители игрушек и колы, чтобы денег заработать. Трое отважных котят, малыш Томми, чокнутый сосед мистер Брэмбл и сам Санта докажут Джулии, что она ошибалась.
Режиссер: Гленн Р. Миллер
Актеры: Элза Джеймс Колберт, Никола Ламбо, Джон П.Фоулер, Йен Боумел
Озвучено: Вячеслав Замез aka zamez
Перевод: Любительский одноголосый
Субтитры: отсутствуют

Качество видео: HDRip
Продолжительность: 01:26:08
Видеокодек: Xvid
Битрейт видео: ~1500 Кбит/сек
Размер кадра: 720 x 400
Аудиокодек: MP3, 2ch.
Битрейт аудио: 128 Кбит/сек

MediaInfo:

Формат : AVI
Формат/Информация : Audio Video Interleave
Размер файла : 1010 Мбайт
Продолжительность : 1 ч. 26 м.
Общий поток : 1638 Кбит/сек
Программа кодирования : VirtualDubMod 1.5.10.2 (build 2542/release)
Библиотека кодирования : VirtualDubMod build 2542/release
Видео
Идентификатор : 0
Формат : MPEG-4 Visual
Профиль формата : Advanced [email protected]
Параметр BVOP формата : 2
Параметр QPel формата : Нет
Параметр GMC формата : Без точки перехода
Параметр матрицы формата : Default (H.263)
Режим смешивания : Сжатый битовый поток
Идентификатор кодека : XVID
Идентификатор кодека/Подсказка : XviD
Продолжительность : 1 ч. 26 м.
Битрейт : 1501 Кбит/сек
Ширина : 720 пикселей
Высота : 400 пикселей
Соотношение сторон : 16:9
Частота кадров : 23,976 кадра/сек
Цветовое пространство : YUV
Субдискретизация насыщенности : 4:2:0
Битовая глубина : 8 бит
Тип развёртки : Прогрессивная
Метод сжатия : С потерями
Бит/(Пиксели*Кадры) : 0.217
Размер потока : 925 Мбайт (92%)
Библиотека кодирования : XviD 1.2.1 (UTC 2008-12-04)
Аудио
Идентификатор : 1
Формат : MPEG Audio
Версия формата : Version 1
Профиль формата : Layer 3
Режим : Joint stereo
Расширение режима : MS Stereo
Идентификатор кодека : 55
Идентификатор кодека/Подсказка : MP3
Продолжительность : 1 ч. 26 м.
Вид битрейта : Постоянный
Битрейт : 128 Кбит/сек
Каналы : 2 канала
Частота : 48,0 КГц
Метод сжатия : С потерями
Размер потока : 78,9 Мбайт (8%)
Выравнивание : Соединение по промежуткам
Продолжительность промежутка : 42 мс. (1,00 видеокадр)
Время предзагрузки промежутка : 504 мс.
Скриншоты:--Время раздачи: 24/7. До первых 5 скачавших.
Яндекс.Метрика
Рейтинг@Mail.ru