Никаких добрых дел / No Good Deed (2014) WEB-DLRip

 

Создавать темы 15-Дек-2014 16:58

-Никаких добрых дел / No Good Deed (2014) WEB-DLRip- Год выпуска: 2014
Оригинальное название: No Good Deed
Производство: США, Screen Gems, Will Packer Productions
Жанр: Триллер, криминал
Режиссер: Сэм Миллер
Продюсер: Ли Клэй, Уильям Пэкер, Идрис Эльба
Актеры: Идрис Эльба, Тараджи П. Хенсон, Лесли Бибб, Кейт дель Кастильо, Генри Симмонс, Кенни Альфонсо, Дэн Кодилл, Татом Пендер, Келли О’Нил
Описание фильма:
Главная героиня картины не один год проработала в правовой системе. Будучи прокурором она в течение нескольких лет вынуждена была общаться с самыми разнообразными преступниками и наблюдать самые темные стороны человеческой натуры. Но в конце концов, ее терпению приходит конец и женщина решает завершить свою блистательную карьеру. Теперь она обычная домохозяйка и это приносит ей намного больше радости, чем ее прежняя работа. Женщина с головой погружается в домашние хлопоты и воспитание своих детей. Но все трагически заканчивается после того, как однажды к ней за помощью обратился незнакомый мужчина, машина которого сломалась недалеко от ее дома. Ее дети оказались похищенными, и теперь только от матери зависит их дальнейшая судьба.
Перевод: Профессиональный многоголосый - iTunes
Субтитры: нет

Дата мировой премьеры: 11 сентября 2014
Продолжительность: 01:23:52
Качество видео: WEB-DLRip
Формат: AVI
Видео кодек: XviD
Битрейт видео: ~ 1928 Кбит/с
Размер кадра: 720x304 (16:9)
Аудио кодек русский: AC3, 6 ch
Аудио: 48kHz, 384 Кбит/с

MediaInfo:

Общее
Полное имя : D:\никаких добрых дел.avi
Формат : AVI
Формат/Информация : Audio Video Interleave
Размер файла : 1,36 Гбайт
Продолжительность : 1 ч. 23 м.
Общий поток : 2322 Кбит/сек
Программа кодирования : VirtualDubMod 1.5.10.3 | www.virtualdub-fr.org || (build 2550/release)
Библиотека кодирования : VirtualDubMod build 2550/release
Видео
Идентификатор : 0
Формат : MPEG-4 Visual
Профиль формата : Advanced [email protected]
Параметр BVOP формата : 2
Параметр QPel формата : Нет
Параметр GMC формата : Без точки перехода
Параметр матрицы формата : Default (MPEG)
Идентификатор кодека : XVID
Идентификатор кодека/Подсказка : XviD
Продолжительность : 1 ч. 23 м.
Битрейт : 1928 Кбит/сек
Ширина : 720 пикселей
Высота : 304 пикселя
Соотношение сторон : 2,35:1
Частота кадров : 23,976 кадра/сек
Цветовое пространство : YUV
Субдискретизация насыщенности : 4:2:0
Битовая глубина : 8 бит
Тип развёртки : Прогрессивная
Метод сжатия : С потерями
Бит/(Пиксели*Кадры) : 0.367
Размер потока : 1,13 Гбайт (83%)
Библиотека кодирования : XviD 1.2.1 (UTC 2008-12-04)
Аудио
Идентификатор : 1
Формат : AC-3
Формат/Информация : Audio Coding 3
Расширение режима : CM (complete main)
Параметр Endianness формата : Big
Идентификатор кодека : 2000
Продолжительность : 1 ч. 23 м.
Вид битрейта : Постоянный
Битрейт : 384 Кбит/сек
Каналы : 6 каналов
Расположение каналов : Front: L C R, Side: L R, LFE
Частота : 48,0 КГц
Битовая глубина : 16 бит
Метод сжатия : С потерями
Размер потока : 230 Мбайт (17%)
Выравнивание : Разделение по промежуткам
Продолжительность промежутка : 42 мс. (1,00 видеокадр)
Время предзагрузки промежутка : 500 мс.
Скриншоты:]
-
Время раздачи: 24/7 до первых 5 скачавших
Яндекс.Метрика
Рейтинг@Mail.ru