VA - Radio Paradise - The Best (1981-2014) [MP3|160-320 кб/с]<Eclectic, Indie, Pop-Rock>

 

Создавать темы 14-Дек-2014 23:06

-VA - Radio Paradise - The Best (1981-2014)- Жанр: Eclectic, Indie, Pop-Rock
Год: 1981-2014
Кодек: MP3
Битрейт аудио: 160-320 кб/с
Тип битрейта: VBR-CBR
Продолжительность: 03:48:24
Треклист:
01. The Black Keys - Weight Of Love (6:50) [320 Kb/s]
02. Tom Petty - A Face In The Crowd (3:59) [320 Kb/s]
03. Laura Veirs - Shape Shifter (3:07) [320 Kb/s]
04. Turin Brakes - Other Side (5:07) [320 Kb/s]
05. Anna Ternheim - Lovers Dream (4:19) [320 Kb/s]
06. Amy MacDonald - Left that Body long ago (4:49) [320 Kb/s]
07. J.J. Cale - Fancy Dancer (4:50) [320 Kb/s]
08. The Heavy - Short Change Hero (3:59) [320 Kb/s]
09. Kathleen Edwards - Goodnight, California (6:29) [244 Kb/s]
10. Keane - We Might As Well Be Strangers (3:12) [320 Kb/s]
11. M83 - Wait (5:43) [320 Kb/s]
12. Lou Doillon - ICU (4:05) [320 Kb/s]
13. Rubyhorse - Long Time Coming (4:40) [223 Kb/s]
14. Soundtrack - Halleluja (4:09) [320 Kb/s]
15. Sophie Zelmani - Going Home (4:10) [320 Kb/s]
16. Wilco - Impossible Germany (5:57) [320 Kb/s]
17. I Am Kloot - Fingerprints (4:33) [320 Kb/s]
18. The Shins - Black Wave (3:19) [320 Kb/s]

Продолжение трек листа&#58;

-19. Wilco - You Are My Face (4:39) [320 Kb/s]
20. Mikky Ekko - Pull Me Down (3:28) [320 Kb/s]
21. Nick Drake - Pink Moon (2:06) [320 Kb/s]
22. Fink - Looking Too Closely (5:11) [320 Kb/s]
23. KT Tunstall - Feel It All (Band Jam) (3:50) [320 Kb/s]
24. Nits - Distance (4:41) [320 Kb/s]
25. David Gray - Mutineers (5:02) [320 Kb/s]
26. James Vincent McMorrow - This Old Dark Machine (4:17) [320 Kb/s]
27. Billie Holiday - Speak Low (4:21) [320 Kb/s]
12. Thomas Dybdahl - But We Did (4:50) [320 Kb/s]
29. Damien Rice - I Don't Want To Change You (5:27) [320 Kb/s]
30. Rilo Kiley - Dreamworld (4:45) [320 Kb/s]
31. ent - Water Screen (6:25) [320 Kb/s]
32. Wilco - How To Fight Loneliness (3:53) [320 Kb/s]
33. Steven Wilson - Nine Cats (4:08) [320 Kb/s]
34. Birds of Tokyo - Boy (5:01) [320 Kb/s]
35. Glass Harp - That Way (5:11) [320 Kb/s]
36. King Creozote - I Am Celist (4:08) [320 Kb/s]
37. Missy Higgins - Secret (4:07) [320 Kb/s]
38. Jason Lytle - Matterhorn (5:12) [320 Kb/s]
39. Soul Asulum - Ranaway (4:22) [160 Kb/s]
40. Laura Veirs - Sun Song (4:12) [320 Kb/s]
41. Doves - Jetstream (5:31) [320 Kb/s]
42. Pearl Jam - Nothing As It Seems (5:23) [320 Kb/s]
43. Snow Patrol - Somewhere A Clock Is Ticking (4:33) [320 Kb/s]
44. Grinderman - Star Charmer (4:01) [320 Kb/s]
45. Judie Tzuke - Faint (4:08) [320 Kb/s]
46. Kings of Convenience - Failure (Single Version) (3:32) [320 Kb/s]
47. Roommate - Snow Globe (5:25) [320 Kb/s]
48. South - 9 Lives (3:50) [236 Kb/s]
49. Vast - Lost (3:59) [320 Kb/s]
50. Solomon Burke - None Of Us Are Free (5:29) [320 Kb/s]-

Mediainfo&#58;

[code]
Общее
Полное имя : E:\AUDIO\Mix\Radio Paradise - The Best (2014)\01. The Black Keys - Weight Of Love.mp3
Формат : MPEG Audio
Размер файла : 15,7 Мбайт
Продолжительность : 6 м. 50 с.
Режим общего битрейта : Постоянный
Общий поток : 320 Кбит/сек
Альбом : Turn Blue
Трек : Weight Of Love
Трек/Положение : 01
Трек/Всего : 11
Исполнитель : The Black Keys
Издатель : Nonesuch (Warner)
Жанр : Rock
Дата записи : 2014
Библиотека кодирования : LAME3.93
Обложка : Yes
Тип обложки : Cover (front)
MIME-тип обложки : image/jpeg
Примечание :
Аудио
Формат : MPEG Audio
Версия формата : Version 1
Профиль формата : Layer 3
Режим : Joint stereo
Продолжительность : 6 м. 50 с.
Вид битрейта : Постоянный
Битрейт : 320 Кбит/сек
Каналы : 2 канала
Частота : 44,1 КГц
Метод сжатия : С потерями
Размер потока : 15,7 Мбайт (100%)
Библиотека кодирования : LAME3.93
Настройки программы : -m j -V 4 -q 0 -lowpass 22.1
Общее
Полное имя : E:\AUDIO\Mix\Radio Paradise - The Best (2014)\02. Tom Petty - Full Moon Fever.mp3
Формат : MPEG Audio
Размер файла : 9,13 Мбайт
Продолжительность : 3 м. 59 с.
Режим общего битрейта : Постоянный
Общий поток : 320 Кбит/сек
Альбом : Full Moon Fever
Трек : A Face In The Crowd
Трек/Положение : 4
Исполнитель : Tom Petty
Жанр :
Дата записи : 1989
Правообладатель : Make Love Not War
Примечание :
Аудио
Формат : MPEG Audio
Версия формата : Version 1
Профиль формата : Layer 3
Режим : Joint stereo
Продолжительность : 3 м. 59 с.
Вид битрейта : Постоянный
Битрейт : 320 Кбит/сек
Каналы : 2 канала
Частота : 44,1 КГц
Метод сжатия : С потерями
Размер потока : 9,12 Мбайт (100%)
Общее
Полное имя : E:\AUDIO\Mix\Radio Paradise - The Best (2014)\03. Laura Veirs - Shape Shifter.mp3
Формат : MPEG Audio
Размер файла : 7,15 Мбайт
Продолжительность : 3 м. 6 с.
Режим общего битрейта : Постоянный
Общий поток : 320 Кбит/сек
Альбом : Warp & Weft
Альбом/Исполнитель : Laura Veirs
Часть/Положение : 1
Часть/Всего : I
Трек : Shape Shifter
Трек/Положение : 3
Трек/Всего : RA
Исполнитель : Laura Veirs
Жанр : Pop Rock
Дата записи : 2013
Библиотека кодирования : LAME3.99r
Правообладатель : Bella Union
Обложка : Yes
Тип обложки : Cover (front)
MIME-тип обложки : image/jpeg
DESCRIPTION : ESCRIPTION
GROUPING : ROUPING
Аудио
Формат : MPEG Audio
Версия формата : Version 1
Профиль формата : Layer 3
Режим : Joint stereo
Продолжительность : 3 м. 7 с.
Вид битрейта : Постоянный
Битрейт : 320 Кбит/сек
Каналы : 2 канала
Частота : 44,1 КГц
Метод сжатия : С потерями
Размер потока : 7,13 Мбайт (100%)
Библиотека кодирования : LAME3.99r
Настройки программы : -m j -V 4 -q 3 -lowpass 20.5
Общее
Полное имя : E:\AUDIO\Mix\Radio Paradise - The Best (2014)\04. Turin Brakes - Other Side.mp3
Формат : MPEG Audio
Размер файла : 11,7 Мбайт
Продолжительность : 5 м. 6 с.
Режим общего битрейта : Постоянный
Общий поток : 320 Кбит/сек
Альбом : Dark on Fire
Альбом/Исполнитель : Turin Brakes
Трек : Other Side
Трек/Положение : 4
Исполнитель : Turin Brakes
Жанр : Rock
Дата записи : 2007
Библиотека кодирования : LAME3.98r
Обложка : Yes
Тип обложки : Cover (front)
MIME-тип обложки : image/jpg
Примечание :
Аудио
Формат : MPEG Audio
Версия формата : Version 1
Профиль формата : Layer 3
Режим : Joint stereo
Расширение режима : MS Stereo
Продолжительность : 5 м. 7 с.
Вид битрейта : Постоянный
Битрейт : 320 Кбит/сек
Каналы : 2 канала
Частота : 44,1 КГц
Метод сжатия : С потерями
Размер потока : 11,7 Мбайт (100%)
Библиотека кодирования : LAME3.98r
Настройки программы : -m j -V 4 -q 3 -lowpass 20.5
Общее
Полное имя : E:\AUDIO\Mix\Radio Paradise - The Best (2014)\05. Anna Ternheim - Lovers Dream.mp3
Формат : MPEG Audio
Размер файла : 9,87 Мбайт
Продолжительность : 4 м. 18 с.
Режим общего битрейта : Постоянный
Общий поток : 320 Кбит/сек
Альбом : Separation Road (Naked versions II)
Трек : Lovers Dream
Трек/Положение : 5
Исполнитель : Anna Ternheim
Жанр : Pop
Дата записи : 2006
Библиотека кодирования : LAME3.97b
Примечание :
Аудио
Формат : MPEG Audio
Версия формата : Version 1
Профиль формата : Layer 3
Режим : Joint stereo
Продолжительность : 4 м. 18 с.
Вид битрейта : Постоянный
Битрейт : 320 Кбит/сек
Каналы : 2 канала
Частота : 44,1 КГц
Метод сжатия : С потерями
Размер потока : 9,87 Мбайт (100%)
Библиотека кодирования : LAME3.97b
Настройки программы : -m j -V 4 -q 2 -lowpass 20.5
Общее
Полное имя : E:\AUDIO\Mix\Radio Paradise - The Best (2014)\06. Amy MacDonald - Left that Body long ago.mp3
Формат : MPEG Audio
Размер файла : 11,0 Мбайт
Продолжительность : 4 м. 49 с.
Режим общего битрейта : Постоянный
Общий поток : 320 Кбит/сек
Альбом : Life in a Beautiful Light
Альбом/Исполнитель : Amy MacDonald
Часть/Положение : 1
Трек : Left that Body long ago
Трек/Положение : 6
Исполнитель : Amy MacDonald
Жанр : Folk-Rock
Дата записи : 2012
Библиотека кодирования : LAME3.99
Примечание : EAC V1.0 beta 2, Secure Mode, Test & Copy, AccurateRip, FLAC -8
Аудио
Формат : MPEG Audio
Версия формата : Version 1
Профиль формата : Layer 3
Режим : Joint stereo
Продолжительность : 4 м. 49 с.
Вид битрейта : Постоянный
Битрейт : 320 Кбит/сек
Каналы : 2 канала
Частота : 44,1 КГц
Метод сжатия : С потерями
Размер потока : 11,0 Мбайт (100%)
Библиотека кодирования : LAME3.99
Настройки программы : -m j -V 4 -q 0 -lowpass 20.5
Общее
Полное имя : E:\AUDIO\Mix\Radio Paradise - The Best (2014)\07. J.J. Cale - Fancy Dancer.mp3
Формат : MPEG Audio
Размер файла : 11,1 Мбайт
Продолжительность : 4 м. 50 с.
Режим общего битрейта : Постоянный
Общий поток : 320 Кбит/сек
Альбом : To Tulsa And Back
Альбом/Исполнитель : J.J. Cale
Трек : Fancy Dancer
Трек/Положение : 08
Исполнитель : J.J. Cale
Жанр : Blues
Дата записи : 2004
Библиотека кодирования : LAME3.97.3ЄЄЄЄЄЄЄЄЄЄ
Аудио
Формат : MPEG Audio
Версия формата : Version 1
Профиль формата : Layer 3
Продолжительность : 4 м. 50 с.
Вид битрейта : Постоянный
Битрейт : 320 Кбит/сек
Каналы : 2 канала
Частота : 44,1 КГц
Метод сжатия : С потерями
Размер потока : 11,1 Мбайт (100%)
Библиотека кодирования : LAME3.97.3ЄЄЄЄЄЄЄЄЄЄ
Общее
Полное имя : E:\AUDIO\Mix\Radio Paradise - The Best (2014)\08. The Heavy - Short Change Hero.mp3
Формат : MPEG Audio
Размер файла : 9,11 Мбайт
Продолжительность : 3 м. 58 с.
Режим общего битрейта : Постоянный
Общий поток : 320 Кбит/сек
Альбом : The House That Dirt Built
Альбом/Исполнитель : The Heavy
Трек : Short Change Hero
Трек/Положение : 8
Исполнитель : The Heavy
Жанр : Другое
Аудио
Формат : MPEG Audio
Версия формата : Version 1
Профиль формата : Layer 3
Продолжительность : 3 м. 58 с.
Вид битрейта : Постоянный
Битрейт : 320 Кбит/сек
Каналы : 2 канала
Частота : 44,1 КГц
Метод сжатия : С потерями
Размер потока : 9,10 Мбайт (100%)
Общее
Полное имя : E:\AUDIO\Mix\Radio Paradise - The Best (2014)\09. Kathleen Edwards - Goodnight, California.mp3
Формат : MPEG Audio
Размер файла : 11,3 Мбайт
Продолжительность : 6 м. 28 с.
Режим общего битрейта : Переменный
Общий поток : 244 Кбит/сек
Альбом : Asking for Flowers
Альбом/Исполнитель : Kathleen Edwards
Часть/Положение : 1
Часть/Всего : 1
Трек : Goodnight, California
Трек/Положение : 9
Исполнитель : Kathleen Edwards
Композитор : Kathleen Edwards
Кодирование произвёл : Winamp 5.52
Издатель : Zoe Records
Жанр : Alt Country
Дата записи : 2008
Библиотека кодирования : LAME3.97
Примечание :
Аудио
Формат : MPEG Audio
Версия формата : Version 1
Профиль формата : Layer 3
Режим : Joint stereo
Расширение режима : MS Stereo
Продолжительность : 6 м. 28 с.
Вид битрейта : Переменный
Битрейт : 244 Кбит/сек
Минимальный битрейт : 224 Кбит/сек
Каналы : 2 канала
Частота : 44,1 КГц
Метод сжатия : С потерями
Размер потока : 11,3 Мбайт (100%)
Библиотека кодирования : LAME3.97
Настройки программы : -m j -V 0 -q 3 -lowpass 19.5 --vbr-old -b 224
Общее
Полное имя : E:\AUDIO\Mix\Radio Paradise - The Best (2014)\10. Keane - We Might As Well Be Strangers.mp3
Формат : MPEG Audio
Размер файла : 7,34 Мбайт
Продолжительность : 3 м. 12 с.
Режим общего битрейта : Постоянный
Общий поток : 320 Кбит/сек
Альбом : Hopes And Fears
Трек : We Might As Well Be Strangers
Трек/Положение : 10
Исполнитель : Keane
Дата записи : 2004
Библиотека кодирования : LAME3.97
Аудио
Формат : MPEG Audio
Версия формата : Version 1
Профиль формата : Layer 3
Режим : Joint stereo
Продолжительность : 3 м. 12 с.
Вид битрейта : Постоянный
Битрейт : 320 Кбит/сек
Каналы : 2 канала
Частота : 44,1 КГц
Метод сжатия : С потерями
Размер потока : 7,34 Мбайт (100%)
Библиотека кодирования : LAME3.97
Настройки программы : -m j -V 4 -q 2 -lowpass 20.5
Общее
Полное имя : E:\AUDIO\Mix\Radio Paradise - The Best (2014)\11. M83 - Wait.mp3
Формат : MPEG Audio
Размер файла : 13,3 Мбайт
Продолжительность : 5 м. 43 с.
Режим общего битрейта : Постоянный
Общий поток : 320 Кбит/сек
Альбом : Wait
Альбом/Исполнитель : M83
Трек : Wait
Трек/Положение : 11
Исполнитель : M83
Аудио
Формат : MPEG Audio
Версия формата : Version 1
Профиль формата : Layer 3
Продолжительность : 5 м. 43 с.
Вид битрейта : Постоянный
Битрейт : 320 Кбит/сек
Каналы : 2 канала
Частота : 44,1 КГц
Метод сжатия : С потерями
Размер потока : 13,1 Мбайт (98%)
Общее
Полное имя : E:\AUDIO\Mix\Radio Paradise - The Best (2014)\12. Lou Doillon - ICU.mp3
Формат : MPEG Audio
Размер файла : 9,34 Мбайт
Продолжительность : 4 м. 4 с.
Режим общего битрейта : Постоянный
Общий поток : 320 Кбит/сек
Альбом : ICU
Альбом/Исполнитель : Lou Doillon
Часть/Положение : 0
Трек : ICU
Трек/Положение : 12
Исполнитель : Lou Doillon
Дата записи : 2012
Библиотека кодирования : LAME3.98r
Обложка : Yes
Тип обложки : Cover (front)
MIME-тип обложки : image/jpeg
Аудио
Формат : MPEG Audio
Версия формата : Version 1
Профиль формата : Layer 3
Режим : Joint stereo
Продолжительность : 4 м. 4 с.
Вид битрейта : Постоянный
Битрейт : 320 Кбит/сек
Каналы : 2 канала
Частота : 44,1 КГц
Метод сжатия : С потерями
Размер потока : 9,33 Мбайт (100%)
Библиотека кодирования : LAME3.98r
Настройки программы : -m j -V 4 -q 3 -lowpass 20.5
Общее
Полное имя : E:\AUDIO\Mix\Radio Paradise - The Best (2014)\13. Rubyhorse - Long Time Coming.mp3
Формат : MPEG Audio
Размер файла : 7,43 Мбайт
Продолжительность : 4 м. 40 с.
Режим общего битрейта : Переменный
Общий поток : 223 Кбит/сек
Альбом : Goodbye To All That
Альбом/Исполнитель : Rubyhorse
Часть/Положение : 1
Часть/Всего : 1
Трек : Long Time Coming
Трек/Положение : 13
Исполнитель : Rubyhorse
Композитор : D. Lucey/Rubyhorse
Издатель : Brash Music
Жанр : Rock
Дата записи : 2003
Библиотека кодирования : LAME3.90.
Аудио
Формат : MPEG Audio
Версия формата : Version 1
Профиль формата : Layer 3
Режим : Joint stereo
Продолжительность : 4 м. 40 с.
Вид битрейта : Переменный
Битрейт : 223 Кбит/сек
Каналы : 2 канала
Частота : 44,1 КГц
Метод сжатия : С потерями
Размер потока : 7,43 Мбайт (100%)
Библиотека кодирования : LAME3.90.
Настройки программы : -m j -V 2 -q 2 -lowpass 19 --vbr-old
Общее
Полное имя : E:\AUDIO\Mix\Radio Paradise - The Best (2014)\14. Rufus Wainwright - Hallelujah.mp3
Формат : MPEG Audio
Размер файла : 9,49 Мбайт
Продолжительность : 4 м. 8 с.
Режим общего битрейта : Постоянный
Общий поток : 320 Кбит/сек
Альбом : Shrek
Трек : Halleluja
Трек/Положение : 14
Исполнитель : Soundtrack
Жанр : Other
Дата записи : 2001
Библиотека кодирования : LAME3.96
Аудио
Формат : MPEG Audio
Версия формата : Version 1
Профиль формата : Layer 3
Режим : Joint stereo
Продолжительность : 4 м. 8 с.
Вид битрейта : Постоянный
Битрейт : 320 Кбит/сек
Каналы : 2 канала
Частота : 44,1 КГц
Метод сжатия : С потерями
Размер потока : 9,49 Мбайт (100%)
Библиотека кодирования : LAME3.96
Настройки программы : -m j -V 4 -q 1
Общее
Полное имя : E:\AUDIO\Mix\Radio Paradise - The Best (2014)\15. Sophie Zelmani - Going Home.mp3
Формат : MPEG Audio
Размер файла : 9,56 Мбайт
Продолжительность : 4 м. 10 с.
Режим общего битрейта : Постоянный
Общий поток : 320 Кбит/сек
Альбом : A Decade of Dreams
Трек : Going Home
Трек/Положение : 15
Исполнитель : Sophie Zelmani
Жанр : Rock/Pop
Библиотека кодирования : LAME3.99r
Аудио
Формат : MPEG Audio
Версия формата : Version 1
Профиль формата : Layer 3
Режим : Joint stereo
Расширение режима : MS Stereo
Продолжительность : 4 м. 10 с.
Вид битрейта : Постоянный
Битрейт : 320 Кбит/сек
Каналы : 2 канала
Частота : 44,1 КГц
Метод сжатия : С потерями
Размер потока : 9,56 Мбайт (100%)
Библиотека кодирования : LAME3.99r
Настройки программы : -m j -V 4 -q 3 -lowpass 20.5
Общее
Полное имя : E:\AUDIO\Mix\Radio Paradise - The Best (2014)\16. Wilco - Impossible Germany.mp3
Формат : MPEG Audio
Размер файла : 13,7 Мбайт
Продолжительность : 5 м. 57 с.
Режим общего битрейта : Постоянный
Общий поток : 320 Кбит/сек
Альбом : Sky Blue Sky
Альбом/Исполнитель : Wilco
Трек : Impossible Germany
Трек/Положение : 16
Исполнитель : Wilco
Жанр : Indie Rock
Дата записи : 2007
Библиотека кодирования : LAME3.93
Обложка : Yes
MIME-тип обложки : image/jpeg
Аудио
Формат : MPEG Audio
Версия формата : Version 1
Профиль формата : Layer 3
Продолжительность : 5 м. 57 с.
Вид битрейта : Постоянный
Битрейт : 320 Кбит/сек
Каналы : 2 канала
Частота : 44,1 КГц
Метод сжатия : С потерями
Размер потока : 13,6 Мбайт (100%)
Библиотека кодирования : LAME3.93
Общее
Полное имя : E:\AUDIO\Mix\Radio Paradise - The Best (2014)\17. I Am Kloot - Fingerprints.mp3
Формат : MPEG Audio
Размер файла : 10,5 Мбайт
Продолжительность : 4 м. 33 с.
Режим общего битрейта : Постоянный
Общий поток : 320 Кбит/сек
Альбом : 2010 - Sky at Night
Альбом/Сортировать по : 2010 - Sky at Night
Альбом/Исполнитель : I Am Kloot
Трек : Fingerprints
Трек/Положение : 3
Трек/Всего : 10
Исполнитель : I Am Kloot
Исполнитель/Сортировать по : I Am Kloot / I Am Kloot
Жанр : Indie Rock
Дата записи : 2010
Библиотека кодирования : LAME3.98b
Обложка : Yes
MIME-тип обложки : image/jpeg
Примечание : Track 3
Аудио
Формат : MPEG Audio
Версия формата : Version 1
Профиль формата : Layer 3
Режим : Joint stereo
Продолжительность : 4 м. 33 с.
Вид битрейта : Постоянный
Битрейт : 320 Кбит/сек
Каналы : 2 канала
Частота : 44,1 КГц
Метод сжатия : С потерями
Размер потока : 10,4 Мбайт (99%)
Библиотека кодирования : LAME3.98b
Настройки программы : -m j -V 4 -q 3 -lowpass 20.5
Общее
Полное имя : E:\AUDIO\Mix\Radio Paradise - The Best (2014)\18. The Shins - Black Wave.mp3
Формат : MPEG Audio
Размер файла : 7,61 Мбайт
Продолжительность : 3 м. 19 с.
Режим общего битрейта : Постоянный
Общий поток : 320 Кбит/сек
Альбом : Wincing the Night Away
Трек : Black Wave
Трек/Положение : 8
Исполнитель : The Shins
Дата записи : 2007
Библиотека кодирования : LAME3.98r
musicbrainz_albumartist : The Shins
musicbrainz_albumartistid : 6c8b9855-ba8b-48f9-ac1d-42167f7f7b18
musicbrainz_albumartistsortname : Shins, The
musicbrainz_albumid : 8a43f89b-8135-4060-b521-68c357fed5ae
musicbrainz_albumstatus : Official
musicbrainz_albumtype : Album
musicbrainz_artistid : 6c8b9855-ba8b-48f9-ac1d-42167f7f7b18
musicbrainz_sortname : Shins, The
musicbrainz_trackid : e33e1415-38b8-4e8b-a1e0-a8256cd6a47e
release date : 2007-01-23
releasecountry : JP
source medium : CD
sourcemedia : CD
Аудио
Формат : MPEG Audio
Версия формата : Version 1
Профиль формата : Layer 3
Режим : Joint stereo
Продолжительность : 3 м. 19 с.
Вид битрейта : Постоянный
Битрейт : 320 Кбит/сек
Каналы : 2 канала
Частота : 44,1 КГц
Метод сжатия : С потерями
Размер потока : 7,60 Мбайт (100%)
Библиотека кодирования : LAME3.98r
Настройки программы : -m j -V 4 -q 3 -lowpass 20.5
Общее
Полное имя : E:\AUDIO\Mix\Radio Paradise - The Best (2014)\19. Wilco - You Are My Face.mp3
Формат : MPEG Audio
Размер файла : 10,7 Мбайт
Продолжительность : 4 м. 38 с.
Режим общего битрейта : Постоянный
Общий поток : 320 Кбит/сек
Альбом : Sky Blue Sky
Альбом/Исполнитель : Wilco
Часть/Положение : 1
Часть/Всего : 1
Трек : You Are My Face
Трек/Положение : 19
Исполнитель : Wilco
Композитор : Jeff Tweedy
Жанр : Alternative & Punk
Дата записи : 2007
Библиотека кодирования : LAME3.99r
Обложка : Yes
Тип обложки : Cover (front)
MIME-тип обложки : image/jpeg
Примечание : 0
Аудио
Формат : MPEG Audio
Версия формата : Version 1
Профиль формата : Layer 3
Режим : Joint stereo
Продолжительность : 4 м. 39 с.
Вид битрейта : Постоянный
Битрейт : 320 Кбит/сек
Каналы : 2 канала
Частота : 44,1 КГц
Метод сжатия : С потерями
Размер потока : 10,6 Мбайт (99%)
Библиотека кодирования : LAME3.99r
Настройки программы : -m j -V 4 -q 3 -lowpass 20.5
Общее
Полное имя : E:\AUDIO\Mix\Radio Paradise - The Best (2014)\20. Mikky Ekko - Pull Me Down.mp3
Формат : MPEG Audio
Размер файла : 7,92 Мбайт
Продолжительность : 3 м. 27 с.
Режим общего битрейта : Постоянный
Общий поток : 320 Кбит/сек
Альбом/Исполнитель : Mikky Ekko
Трек : Pull Me Down
Трек/Положение : 20
Дата записи : 2012
Библиотека кодирования : LAME3.99r
Аудио
Формат : MPEG Audio
Версия формата : Version 1
Профиль формата : Layer 3
Режим : Joint stereo
Расширение режима : MS Stereo
Продолжительность : 3 м. 27 с.
Вид битрейта : Постоянный
Битрейт : 320 Кбит/сек
Каналы : 2 канала
Частота : 48,0 КГц
Метод сжатия : С потерями
Размер потока : 7,92 Мбайт (100%)
Библиотека кодирования : LAME3.99r
Настройки программы : -m j -V 4 -q 3 -lowpass 20.5
Общее
Полное имя : E:\AUDIO\Mix\Radio Paradise - The Best (2014)\21. Nick Drake - Pink Moon.mp3
Формат : MPEG Audio
Размер файла : 4,83 Мбайт
Продолжительность : 2 м. 6 с.
Режим общего битрейта : Постоянный
Общий поток : 320 Кбит/сек
Альбом : Pink Moon
Трек : Pink Moon
Трек/Положение : 1
Исполнитель : Nick Drake
Дата записи : 1972
TRACKNUMBER : 1
Аудио
Формат : MPEG Audio
Версия формата : Version 1
Профиль формата : Layer 3
Продолжительность : 2 м. 6 с.
Вид битрейта : Постоянный
Битрейт : 320 Кбит/сек
Каналы : 2 канала
Частота : 44,1 КГц
Метод сжатия : С потерями
Размер потока : 4,82 Мбайт (100%)
Общее
Полное имя : E:\AUDIO\Mix\Radio Paradise - The Best (2014)\22. Fink - Looking Too Closely.mp3
Формат : MPEG Audio
Размер файла : 11,9 Мбайт
Продолжительность : 5 м. 10 с.
Режим общего битрейта : Постоянный
Общий поток : 320 Кбит/сек
Альбом : Hard Believer
Альбом/Исполнитель : Fink
Часть/Положение : 1
Часть/Всего : 1
Трек : Looking Too Closely
Трек/Положение : 22
Исполнитель : Fink
Кодирование произвёл : iTunes 11.2.2
Жанр : Electronica
Дата записи : 2014
Аудио
Формат : MPEG Audio
Версия формата : Version 1
Профиль формата : Layer 3
Продолжительность : 5 м. 11 с.
Вид битрейта : Постоянный
Битрейт : 320 Кбит/сек
Каналы : 2 канала
Частота : 44,1 КГц
Метод сжатия : С потерями
Размер потока : 11,9 Мбайт (100%)
Общее
Полное имя : E:\AUDIO\Mix\Radio Paradise - The Best (2014)\23. KT Tunstall - Feel It All.mp3
Формат : MPEG Audio
Размер файла : 8,75 Мбайт
Продолжительность : 3 м. 49 с.
Режим общего битрейта : Постоянный
Общий поток : 320 Кбит/сек
Трек : Feel It All (Band Jam)
Трек/Положение : 23
Исполнитель : KT Tunstall
Композитор : KT Tunstall
Жанр : Singer/Songwriter
Дата выпуска : 2013
Библиотека кодирования : LAME3.98.4
Примечание :
Аудио
Формат : MPEG Audio
Версия формата : Version 1
Профиль формата : Layer 3
Режим : Joint stereo
Расширение режима : MS Stereo
Продолжительность : 3 м. 49 с.
Вид битрейта : Постоянный
Битрейт : 320 Кбит/сек
Каналы : 2 канала
Частота : 44,1 КГц
Метод сжатия : С потерями
Размер потока : 8,75 Мбайт (100%)
Библиотека кодирования : LAME3.98.4
Общее
Полное имя : E:\AUDIO\Mix\Radio Paradise - The Best (2014)\24. Nits - Distance.mp3
Формат : MPEG Audio
Размер файла : 10,7 Мбайт
Продолжительность : 4 м. 41 с.
Режим общего битрейта : Постоянный
Общий поток : 320 Кбит/сек
Альбом : Nits
Альбом/Исполнитель : Nits
Трек : Distance
Трек/Положение : 24
Исполнитель : Nits
Жанр : Другое
Дата записи : 2013
Аудио
Формат : MPEG Audio
Версия формата : Version 1
Профиль формата : Layer 3
Продолжительность : 4 м. 41 с.
Вид битрейта : Постоянный
Битрейт : 320 Кбит/сек
Каналы : 2 канала
Частота : 44,1 КГц
Метод сжатия : С потерями
Размер потока : 10,7 Мбайт (100%)
Общее
Полное имя : E:\AUDIO\Mix\Radio Paradise - The Best (2014)\25. David Gray - Mutineers.mp3
Формат : MPEG Audio
Размер файла : 11,6 Мбайт
Продолжительность : 5 м. 2 с.
Режим общего битрейта : Постоянный
Общий поток : 320 Кбит/сек
Альбом : Mutineers
Альбом/Исполнитель : David Gray
Часть/Положение : 1
Часть/Всего : 1
Трек : Mutineers
Трек/Положение : 25
Исполнитель : David Gray
Композитор : Andy Barlow/David Gray
Издатель : Iht Records
Жанр : Pop-Folk
Дата записи : 2014
Библиотека кодирования : LAME3.99r
ISRC : GBDLY1400018
Обложка : Yes
Тип обложки : Cover (front)
MIME-тип обложки : image/jpeg
Аудио
Формат : MPEG Audio
Версия формата : Version 1
Профиль формата : Layer 3
Режим : Joint stereo
Продолжительность : 5 м. 2 с.
Вид битрейта : Постоянный
Битрейт : 320 Кбит/сек
Каналы : 2 канала
Частота : 44,1 КГц
Метод сжатия : С потерями
Размер потока : 11,5 Мбайт (100%)
Библиотека кодирования : LAME3.99r
Настройки программы : -m j -V 4 -q 2 -lowpass 20.5
Общее
Полное имя : E:\AUDIO\Mix\Radio Paradise - The Best (2014)\26. James Vincent McMorrow - This Old Dark Machine.mp3
Формат : MPEG Audio
Размер файла : 9,80 Мбайт
Продолжительность : 4 м. 16 с.
Режим общего битрейта : Постоянный
Общий поток : 320 Кбит/сек
Трек : This Old Dark Machine
Трек/Положение : 26
Исполнитель : James Vincent McMorrow
Аудио
Формат : MPEG Audio
Версия формата : Version 1
Профиль формата : Layer 3
Режим : Joint stereo
Продолжительность : 4 м. 16 с.
Вид битрейта : Постоянный
Битрейт : 320 Кбит/сек
Каналы : 2 канала
Частота : 48,0 КГц
Метод сжатия : С потерями
Размер потока : 9,79 Мбайт (100%)
Общее
Полное имя : E:\AUDIO\Mix\Radio Paradise - The Best (2014)\27. Billie Holiday - Speak Low.mp3
Формат : MPEG Audio
Размер файла : 9,97 Мбайт
Продолжительность : 4 м. 21 с.
Режим общего битрейта : Постоянный
Общий поток : 320 Кбит/сек
Трек : Speak Low
Трек/Положение : 27
Исполнитель : Billie Holiday
Аудио
Формат : MPEG Audio
Версия формата : Version 1
Профиль формата : Layer 3
Режим : Joint stereo
Продолжительность : 4 м. 21 с.
Вид битрейта : Постоянный
Битрейт : 320 Кбит/сек
Каналы : 2 канала
Частота : 44,1 КГц
Метод сжатия : С потерями
Размер потока : 9,96 Мбайт (100%)
Общее
Полное имя : E:\AUDIO\Mix\Radio Paradise - The Best (2014)\28. Thomas Dybdahl - But We Did.mp3
Формат : MPEG Audio
Размер файла : 11,1 Мбайт
Продолжительность : 4 м. 49 с.
Режим общего битрейта : Постоянный
Общий поток : 320 Кбит/сек
Альбом : What's Left Is Forever (Deluxe)
Альбом/Исполнитель : Thomas Dybdahl
Часть/Положение : 1
Часть/Всего : 1
Трек : But We Did
Трек/Положение : 12
Трек/Всего : 16
Компиляция : Yes
Исполнитель : Thomas Dybdahl
Кодирование произвёл : iTunes 11.1.0.126
Жанр : Alternative
Дата записи : 2013
Аудио
Формат : MPEG Audio
Версия формата : Version 1
Профиль формата : Layer 3
Продолжительность : 4 м. 50 с.
Вид битрейта : Постоянный
Битрейт : 320 Кбит/сек
Каналы : 2 канала
Частота : 44,1 КГц
Метод сжатия : С потерями
Размер потока : 11,1 Мбайт (100%)
Общее
Полное имя : E:\AUDIO\Mix\Radio Paradise - The Best (2014)\29. Damien Rice - I Don't Want To Change You.mp3
Формат : MPEG Audio
Размер файла : 12,5 Мбайт
Продолжительность : 5 м. 26 с.
Режим общего битрейта : Постоянный
Общий поток : 320 Кбит/сек
Альбом : My Favourite Faded Fantasy
Альбом/Исполнитель : Damien Rice
Трек : I Don't Want To Change You
Трек/Положение : 29
Исполнитель : Damien Rice
Дата записи : 2014
Библиотека кодирования : LAME3.99r
Обложка : Yes
Тип обложки : Cover (front)
MIME-тип обложки : image/jpg
Аудио
Формат : MPEG Audio
Версия формата : Version 1
Профиль формата : Layer 3
Режим : Joint stereo
Продолжительность : 5 м. 27 с.
Вид битрейта : Постоянный
Битрейт : 320 Кбит/сек
Каналы : 2 канала
Частота : 44,1 КГц
Метод сжатия : С потерями
Размер пот
Яндекс.Метрика
Рейтинг@Mail.ru