[ Сегодня на трекере фрилич! Идет свободное скачивание без начисления Download ]

Halo: Сумерки / Halo: Nightfall / Сезон: 1 / Полный / Серии: 5 из 5 (Серджо Мимика-Геззан / Sergio Mimica-Gezzan) [2014 г., фантастика, боевик, триллер, приключения, ..., WEB-DLRip] MVO (AlexFilm) + Original (Eng)

 

Создавать темы 14-Дек-2014 18:19

-Halo: Сумерки / Halo: Nightfall-- Производство: США
Жанр: фантастика, боевик, триллер, приключения, ...
Год выпуска: 2014 г.-Премьера (мир): 11 ноября 2014-Озвучка: Студия
Перевод: Многоголосый закадровый, профессиональный
Оригинальный аудиопоток: английский-Перевод: Константин Кривоногов
Озвучка: Ирина Воронова, Михаил Суслов, Владимир Курдов, Константин Погодаев
Монтаж и сведение звука: Михаил Шорыгин
Постер: Андрей Шапал-Режиссер: Серджо Мимика-Геззан / Sergio Mimica-Gezzan-В ролях: Алексис Родни, Александр Бхат, Сара Армстронг, Александра Бхат, Шон Блэйни, Шейнин Бреннан, Кристина Чонг, Майк Колтер, Кристиан Райан Контрерарс ...-Описание:
Действие сериала начнётся с событий на одной из Внешних колоний человечества, Седре. Отряд Службы военной разведки под командованием капитан-лейтенанта Джеймсона Локка высажен на планету с целью расследовать предполагаемую террористическую деятельность. Отряд подвергается атаке радикалов, и становится известно, что те пытаются использовать некое биологическое оружие, способное влиять только на людей. Ради своего выживания оперативники отряда вынуждены работать вместе с одним из местных командиров Рэндаллом Аикеном. Оставаясь на Седре, отряд обнаруживает инопланетный артефакт. Тем временем на орбиту колонии прибывает частично функциональная секция уничтоженной Установки 04.-Сезон: 1
Серии: 5 из 5 серий
Продолжительность: ~ 00:27:00 мин серия-Качество видео: WEB-DLRip
Контейнер: AVI
Видео кодек: XviD
Аудио кодек: MP3
Видео: MPEG-4 Visual at 1422 Кбит/сек: 720 x 304 (2.368) at 23.976 fps: 0.27 Бит/Пиксели
Аудио Rus: MPEG Audio at 128 Кбит/сек: 2 канала, 48,0 КГц |AlexFilm|
Аудио Eng: MPEG Audio at 128 Кбит/сек: 2 канала, 48,0 КГц |Original|
Cубтитры: отсутствуют
- -

Media Info

Общее
Полное имя : E:\_Сериалы\_Сериалы\Halo Сумерки\Halo Nightfall - Season 1 (AlexFilm) WEB-DLRip\Halo.Nightfall.s01e01.WEB-DLRip.Rus.Eng.AlexFilm.avi
Формат : AVI
Формат/Информация : Audio Video Interleave
Размер файла : 351 Мбайт
Продолжительность : 28 м.
Общий поток : 1692 Кбит/сек
Программа кодирования : VirtualDubMod 1.5.10.2 (build 2540/release)
Библиотека кодирования : VirtualDubMod build 2540/release
Видео
Идентификатор : 0
Формат : MPEG-4 Visual
Профиль формата : Advanced [email protected]
Параметр BVOP формата : Нет
Параметр QPel формата : Нет
Параметр GMC формата : Без точки перехода
Параметр матрицы формата : Default (H.263)
Идентификатор кодека : XVID
Идентификатор кодека/Подсказка : XviD
Продолжительность : 28 м.
Битрейт : 1422 Кбит/сек
Ширина : 720 пикселей
Высота : 304 пикселя
Соотношение сторон : 2,35:1
Частота кадров : 23,976 кадра/сек
Цветовое пространство : YUV
Субдискретизация насыщенности : 4:2:0
Битовая глубина : 8 бит
Тип развёртки : Прогрессивная
Метод сжатия : С потерями
Бит/(Пиксели*Кадры) : 0.271
Размер потока : 295 Мбайт (84%)
Библиотека кодирования : XviD 73
Аудио #1
Идентификатор : 1
Формат : MPEG Audio
Версия формата : Version 1
Профиль формата : Layer 3
Режим : Joint stereo
Расширение режима : MS Stereo
Идентификатор кодека : 55
Идентификатор кодека/Подсказка : MP3
Продолжительность : 28 м.
Вид битрейта : Постоянный
Битрейт : 128 Кбит/сек
Каналы : 2 канала
Частота : 48,0 КГц
Метод сжатия : С потерями
Размер потока : 26,5 Мбайт (8%)
Выравнивание : Соединение по промежуткам
Продолжительность промежутка : 42 мс. (1,00 видеокадр)
Время предзагрузки промежутка : 504 мс.
Заголовок : Russian (AlexFilm)
Библиотека кодирования : LAME3.99r
Настройки программы : -m j -V 4 -q 3 -lowpass 18 -b 128
Аудио #2
Идентификатор : 2
Формат : MPEG Audio
Версия формата : Version 1
Профиль формата : Layer 3
Режим : Joint stereo
Расширение режима : MS Stereo
Идентификатор кодека : 55
Идентификатор кодека/Подсказка : MP3
Продолжительность : 28 м.
Вид битрейта : Постоянный
Битрейт : 128 Кбит/сек
Каналы : 2 канала
Частота : 48,0 КГц
Метод сжатия : С потерями
Размер потока : 26,5 Мбайт (8%)
Выравнивание : Соединение по промежуткам
Продолжительность промежутка : 42 мс. (1,00 видеокадр)
Время предзагрузки промежутка : 504 мс.
Заголовок : English
Библиотека кодирования : LAME3.90.3
-

Скриншот c названием фильма

-Скриншоты:
-

Еще

-

Как закачать отдельный файл

1. Открыть торрент
2. Снять галки с тех файлов торрента, которые мы не хотим закачивать. Оставляем только на нужных нам файлах (файле).
3. Нажать О.К.
В клиенте utorrent
Инструкция
1) Открыть торрент

2) Снять галки с тех файлов торрента, которые мы не хотим закачивать:
* либо вручную, снимая с каждого файла галку( скрин №1)
* либо, нажав кнопку "Снять метки (Select None)", сняв сразу со всех файлов(скрин №2)
№1

№2

Оставляем только на нужных нам файлах (файле).

3)Нажать О.К
-Добавлена пятая, заключительная, серия первого сезона
Релиз перезалит в качестве WEB-DLRip
Яндекс.Метрика
Рейтинг@Mail.ru