Кодекс чести-7 (2014) SATRip (Владимир Нахабцев (мл.), Виталий Скородумов)(сезон 7, серия 1-32 из 32)

 

Создавать темы 10-Дек-2014 20:43

-Кодекс чести-7 (2014) SATRip [сезон 7, серия 1-32 из 32] - Год выпуска: 2014
Жанр: Детектив, Боевик

Дата российской премьеры: 1 декабря 2014 (НТВ)
Режиссер: Владимир Нахабцев (мл.), Виталий Скородумов
Актеры: Игорь Лагутин, Илья Оболонков, Андрей Савостьянов, Георгий Николаенко, Мария Кулик, Ксения Радченко, Сергей Шарифуллин, Ника Балина, Сергей Рублёв, Андрей Москвичёв, Алексей Шаранин, Игорь Кулачко, Надежда Азоркина, Александр Зуев, Олег Руденко-Травин, Григорий Кокоткин, Анатолий Завьялов, Юрий Тузов, Алла Малкова, Александр Хованский (II), Фатима Горбенко
Описание фильма:
В новом сезоне «Кодекса чести» главных героев ждет множество сверхсложных заданий и неожиданных поворотов судьбы, ведь их считают особой группой, выполняющей задания повышенной сложности.
Наряду с быстрым решением запутанных преступных головоломок, бойцам постоянно приходится держать себя в тонусе. Так, Пастуху, Карасёву и Максу предстоит преследовать профессионального паркурщика, преодолевающего сложнейшие препятствия с неправдоподобной легкостью. А в другой истории их противником будет настоящий ниндзя.
Даже долгожданный отдых не обходится у ребят без погонь и драк: в одной из серий, проводя выходные на турбазе, они раскроют убийство десятилетней давности, а также вычислят интернет-преступников, создавших сайт, на котором в live-режиме казнят людей, избежавших наказания в прошлом.
Что касается личной жизни, то холостой красавчик Карасёв наконец-то встретит свою любовь. Правда, прежде ему придется столкнуться с бандитами в клоунских масках, захватившими бассейн с людьми. Будучи безоружным, Карасёв решится на хитроумный трюк, чтобы спасти людей. И он будет не единственным, кому предстоит взглянуть смерти в лицо
Продолжительность: ~00:45:00 серия
Качество видео: SATRip
Сэмпл: Скачать
Видеокодек: Xvid
Битрейт видео: ~1500 kb/s
Размер кадра: 720х400 (16:9)
Аудиокодек: AC-3
Битрейт аудио: 192 kb/s,2 ch

MI

Общее
Полное имя : H:\Кодекс чести-7\01 серия.avi
Формат : AVI
Формат/Информация : Audio Video Interleave
Размер файла : 540 Мбайт
Продолжительность : 45 м.
Общий поток : 1653 Кбит/сек
Программа кодирования : VirtualDubMod 1.5.10.3 | www.virtualdub-fr.org || (build 2550/release)
Библиотека кодирования : VirtualDubMod build 2550/release
Видео
Идентификатор : 0
Формат : MPEG-4 Visual
Профиль формата : Advanced [email protected]
Параметр BVOP формата : 1
Параметр QPel формата : Нет
Параметр GMC формата : Без точки перехода
Параметр матрицы формата : Выборочная
Идентификатор кодека : XVID
Идентификатор кодека/Подсказка : XviD
Продолжительность : 45 м.
Битрейт : 1451 Кбит/сек
Ширина : 720 пикселей
Высота : 400 пикселей
Соотношение сторон : 16:9
Частота кадров : 25,000 кадров/сек
Цветовое пространство : YUV
Субдискретизация насыщенности : 4:2:0
Битовая глубина : 8 бит
Тип развёртки : Прогрессивная
Метод сжатия : С потерями
Бит/(Пиксели*Кадры) : 0.202
Размер потока : 474 Мбайт (88%)
Библиотека кодирования : XviD 73
Аудио
Идентификатор : 1
Формат : AC-3
Формат/Информация : Audio Coding 3
Расширение режима : CM (complete main)
Параметр Endianness формата : Big
Идентификатор кодека : 2000
Продолжительность : 45 м.
Вид битрейта : Постоянный
Битрейт : 192 Кбит/сек
Каналы : 2 канала
Расположение каналов : Front: L R
Частота : 48,0 КГц
Битовая глубина : 16 бит
Метод сжатия : С потерями
Размер потока : 62,7 Мбайт (12%)
Выравнивание : Разделение по промежуткам
Продолжительность промежутка : 40 мс. (1,00 видеокадр)
Время предзагрузки промежутка : 500 мс.

Внимание! Раздача ведётся путём добавления новых серий

Внимание! Раздача ведётся путём добавления новых серий; при каждом добавлении создаётся новый торрент.
Чтобы начать докачку новой серии, пользователям необходимо сделать следующее:
1. Остановить скачивание;
2. Удалить старый торрент у себя из клиента (старые серии удалять не надо);
3. Скачать новый торрент и запустить его у себя в клиенте вместо старого, при этом указать клиенту путь в старую папку куда и должно происходить скачивание новых серий. Ваш клиент при этом должен произвести хеширование (проверку) старой папки и будет докачивать только те серии, которых у вас ещё нет. Старые серии при этом не удаляются, а продолжают раздаваться! Eсли вы уже удалили старые серии, то предотвратить повторную закачку старых серий можно, отжав галочку в соответствующих местах при запуске нового торрента.
Скриншоты:
Торрент обновлён до 32 серии.Сезон закончен
Яндекс.Метрика
Рейтинг@Mail.ru