Физрук (2014) SATRip (Сезон 2, серии 6-20 из 20) (обновляемая) (временная)

 

Создавать темы 08-Дек-2014 14:13

-Физрук (2014) SATRip (Сезон 2, серии 6-20 из 20) (обновляемая)- Год выпуска: 2014
Производство: Россия, Good Story Media по заказу
Жанр: Комедия
Дата российской премьеры: 10 ноября 2014
Режиссер: Сергей Сенцов
Актеры: Дмитрий Нагиев, Александр Гордон, Полина Гренц, Анастасия Панина, Владимир Сычёв, Данила Вахрушев, Андрей Крыжний, Артур Сопельник, Оксана Сидоренко, Карина Мишулина, Роман Индык, Елена Муравьёва, Евгений Кулаков, Виктория Клинкова, Ян Цапник, Екатерина Айсина, Наталья Коренная, Варвара Богданова, Мария Киселева, Иван Мудров, Дмитрий Гогу, Владимир Жеребцов, Владимир Епископосян, Сергей Серов, Сергей Журавлёв, Любовь Германова, Борис Клюев, Дмитрий Власкин
Описание фильма:
После неудач первого сезона Фома опустил руки и ушел в запой. Неожиданно к нему приезжает Дима, его племянник из Батайска, который всегда восхищался дядей Фомой. Вера Димы в дядю заставляет Фому задуматься и начать исправлять ошибки прошлого.

Продолжительность: ~00:25:00 серия
Качество видео: SATRip
Видеокодек: XviD
Битрейт видео: 1800 kbps
Размер кадра: 720x400
Аудиокодек: MP3, 2 ch
Битрейт аудио: 128 kbps

MI

Общее
Полное имя                               : D:\Раздачи\Fizruk-2.2014.SATRip\Fizruk-2.Seriya.07.SATRip.avi
Формат                                   : AVI
Формат/Информация                        : Audio Video Interleave
Размер файла                             : 321 Мбайт
Продолжительность                        : 23 м.
Общий поток                              : 1938 Кбит/сек
Программа кодирования                    : VirtualDubMod 1.5.10.3 | (build 2550/release)
Библиотека кодирования                   : VirtualDubMod build 2550/release
Видео
Идентификатор                            : 0
Формат                                   : MPEG-4 Visual
Профиль формата                          : Advanced [email protected]
Параметр BVOP формата                    : 2
Параметр QPel формата                    : Нет
Параметр GMC формата                     : Без точки перехода
Параметр матрицы формата                 : Default (H.263)
Идентификатор кодека                     : XVID
Идентификатор кодека/Подсказка           : XviD
Продолжительность                        : 23 м.
Битрейт                                  : 1800 Кбит/сек
Ширина                                   : 720 пикселей
Высота                                   : 400 пикселей
Соотношение сторон                       : 16:9
Частота кадров                           : 25,000 кадров/сек
Цветовое пространство                    : YUV
Субдискретизация насыщенности            : 4:2:0
Битовая глубина                          : 8 бит
Тип развёртки                            : Прогрессивная
Метод сжатия                             : С потерями
Бит/(Пиксели*Кадры)                      : 0.250
Размер потока                            : 298 Мбайт (93%)
Библиотека кодирования                   : XviD 1.2.1 (UTC 2008-12-04)
Аудио
Идентификатор                            : 1
Формат                                   : MPEG Audio
Версия формата                           : Version 1
Профиль формата                          : Layer 3
Режим                                    : Joint stereo
Расширение режима                        : MS Stereo
Идентификатор кодека                     : 55
Идентификатор кодека/Подсказка           : MP3
Продолжительность                        : 23 м.
Вид битрейта                             : Постоянный
Битрейт                                  : 128 Кбит/сек
Каналы                                   : 2 канала
Частота                                  : 48,0 КГц
Метод сжатия                             : С потерями
Размер потока                            : 21,2 Мбайт (7%)
Выравнивание                             : Соединение по промежуткам
Продолжительность промежутка             : 40  мс. (1,00 видеокадр)
Время предзагрузки промежутка            : 504  мс.
Библиотека кодирования                   : LAME3.99r
Настройки программы                      : -m j -V 4 -q 9 -lowpass 17 -b 128

Внимание! Раздача ведётся путём добавления новых серий

Внимание! Раздача ведётся путём добавления новых серий; при каждом добавлении создаётся новый торрент.
Чтобы начать докачку новой серии, пользователям необходимо сделать следующее:
1. Остановить скачивание;
2. Удалить старый торрент у себя из клиента (старые серии удалять не надо);
3. Скачать новый торрент и запустить его у себя в клиенте вместо старого, при этом указать клиенту путь в старую папку куда и должно происходить скачивание новых серий. Ваш клиент при этом должен произвести хеширование (проверку) старой папки и будет докачивать только те серии, которых у вас ещё нет. Старые серии при этом не удаляются, а продолжают раздаваться! Eсли вы уже удалили старые серии, то предотвратить повторную закачку старых серий можно, отжав галочку в соответствующих местах при запуске нового торрента.
Скриншоты:

Создавать темы 13-Дек-2014 13:16 (спустя 4 дня)

Торрент перезалит. Добавлены новые серии
Яндекс.Метрика
Рейтинг@Mail.ru