[ Сегодня на трекере фрилич! Идет свободное скачивание без начисления Download ]

Новые русские сенсации. Наследники вождей (2014.11.01) SATRip

 

Создавать темы 01-Ноя-2014 17:59

- Новые русские сенсации. Наследники вождей (2014.11.01) SATRip - Режиссер / Телекомпания: НТВ
Русское название: Русские сенсации.
Год выпуска: 2014
Жанр: Документальный
Описание:
Программа "Русские сенсации" - это еженедельное документальное приложение к "Программе Максимум". Созданная в лучших традициях расследовательской журналистики, программа развивает и углубляет этот жанр, затрагивая темы, о которых раньше никогда не рассказывало отечественное ТВ. Большинство фильмов - уникальные разработки, слишком громкие и масштабные для еженедельной "Программы Максимум". Другие темы продолжают лучшие расследования "Программы Максимум", расширяя их до уровня общенациональной проблемы. Проект "Русские сенсации" сохраняет все особенности стиля "Программы Максимум": актуальность, репортажность, активную работу репортера на месте расследования. Даже в случае с историческими детективами, делается упор на репортажную составляющую, а не на хронику (если только речь не об уникальной хронике). В каждом выпуске мы стремимся найти свой поворот темы, уникальных свидетелей, эксклюзивную информацию, которая раньше хранилась только под грифом "секретно". Программа носит подзаголовок - "информационный детектив", и это значит, что в программе будет максимум сенсаций, максимум неизвестных фактов, максимум разоблачений и зритель просто не сможет оторваться от экрана. В ближайших планах - громкие расследования о русской мафии за рубежом, тайнах масонской ложи России, неизвестных покушениях на первых лиц российского государства и знаменитых сектантах отечественной эстрады. Авторы фильмов - в прошлом самые известные журналисты "Пограммы "Максимум": Алексей Егоров, Павел Селин, Алексей Кудашов.
В выпуске:
Наследники повелителей Восточной Европы — сын президента Чехословакии Гусака, внучка вождя Болгарии Живкова, племянник румынского диктатора Чаушеску, дочь президента Польши Ярузельского — как они пережили люстрацию и как теперь выживают в либеральной Европе?
Как Горбачёв предал Живкова, кто из самых близких заказал расправу над четой Чаушеску, чего до сих пор боятся в семье Гусака и как долгие годы преследовали дочь Ярузельского?
Режиссёр: Глеб Ясиницкий, Андрей Куренков, Дмитрий Цура
Продолжительность: ~ 00:42:33
Видеокодек: XviD
Битрейт видео: ~1801 kb/s
Размер кадра: 720 x 448
Качество видео: SATRip
Аудиокодек: MP3, 2ch.
Битрейт аудио: 128 kb/s

MediaInfo

Формат : AVI
Формат/Информация : Audio Video Interleave
Размер файла : 590 Мбайт
Продолжительность : 42 м.
Общий поток : 1938 Кбит/сек
Библиотека кодирования : VirtualDub build 32817/release
Видео
Идентификатор : 0
Формат : MPEG-4 Visual
Профиль формата : Advanced [email protected]
Параметр BVOP формата : 2
Параметр QPel формата : Нет
Параметр GMC формата : Без точки перехода
Параметр матрицы формата : Default (MPEG)
Идентификатор кодека : XVID
Идентификатор кодека/Подсказка : XviD
Продолжительность : 42 м.
Битрейт : 1800 Кбит/сек
Ширина : 720 пикселей
Высота : 448 пикселей
Соотношение сторон : 16:10
Частота кадров : 25,000 кадров/сек
Цветовое пространство : YUV
Субдискретизация насыщенности : 4:2:0
Битовая глубина : 8 бит
Тип развёртки : Прогрессивная
Метод сжатия : С потерями
Бит/(Пиксели*Кадры) : 0.223
Размер потока : 548 Мбайт (93%)
Библиотека кодирования : XviD 1.2.1 (UTC 2008-12-04)
Аудио
Идентификатор : 1
Формат : MPEG Audio
Версия формата : Version 1
Профиль формата : Layer 3
Режим : Joint stereo
Расширение режима : MS Stereo
Идентификатор кодека : 55
Идентификатор кодека/Подсказка : MP3
Продолжительность : 42 м.
Вид битрейта : Постоянный
Битрейт : 128 Кбит/сек
Каналы : 2 канала
Частота : 48,0 КГц
Метод сжатия : С потерями
Размер потока : 39,0 Мбайт (7%)
Выравнивание : Разделение по промежуткам
Продолжительность промежутка : 40 мс. (1,00 видеокадр)
Время предзагрузки промежутка : 500 мс.
-Скриншоты:--Время раздачи: 24/7. До первых 5 скачавших.-Rip by Ponomarev1997-
Яндекс.Метрика
Рейтинг@Mail.ru