[ Сегодня на трекере фрилич! Идет свободное скачивание без начисления Download ]

Анна Чапман и ее мужчины (2014.10.17) SATRip

 

Создавать темы 17-Окт-2014 15:25

- Анна Чапман и ее мужчины (2014.10.17) SATRip - Режиссер / Телекомпания: РЕН
Русское название: Анна Чапман и ее мужчины
Год выпуска: 2014
Жанр: Документальный, космос, исследования, технологии, гипотезы, предположения, история
Выпущено: Россия, ООО "Телекомпания "Мейнстрим" по заказу ООО "АКЦЕПТ" (телевизионный канал РЕН ТВ)"
Описание:
Гостями самой загадочной и сексуальной ведущей на российском ТВ станут исключительно мужчины: известные политики, бизнесмены, общественные деятели, звезды шоу-бизнеса. Что скрывают люди, о которых мы, казалось бы, знаем все? Красота, ум и обаяние - в арсенале экс-разведчицы есть все, чтобы "раскрыть все тайны" героев программы! Главный принцип: дерзость ведущей и вынужденная откровенность героя. На каждого гостя у Анны Чапман уже собрано досье. Экс-шпионка вытащит на свет все потаенные секреты звездных мужчин. Личная жизнь, скандальные факты биографии, любовь и секс, политика и бизнес. Для Анны Чапман нет запретных тем! Уникальные расследования, сенсационные факты из жизни богатых и знаменитых. Эксклюзивные интервью звезд первой величины. Актуальные темы и люди, ставшие героями дня!
Режиссер: Владимир Храповицкий
Ведущий: Анна Чапман
Продолжительность: 00:47:28
Видеокодек: Xvid
Битрейт видео: ~1800 Кбит/сек
Размер кадра: 704 x 512
Качество видео: SATRip
Аудиокодек: MP3, 2ch.
Битрейт аудио: 128 Кбит/сек

MediaInfo:

Формат : AVI
Формат/Информация : Audio Video Interleave
Размер файла : 658 Мбайт
Продолжительность : 47 м.
Общий поток : 1938 Кбит/сек
Библиотека кодирования : VirtualDub build 32817/release
Видео
Идентификатор : 0
Формат : MPEG-4 Visual
Профиль формата : Advanced [email protected]
Параметр BVOP формата : 2
Параметр QPel формата : Нет
Параметр GMC формата : Без точки перехода
Параметр матрицы формата : Default (MPEG)
Идентификатор кодека : XVID
Идентификатор кодека/Подсказка : XviD
Продолжительность : 47 м.
Битрейт : 1800 Кбит/сек
Ширина : 704 пикселя
Высота : 512 пикселей
Соотношение сторон : 1,375
Частота кадров : 25,000 кадров/сек
Цветовое пространство : YUV
Субдискретизация насыщенности : 4:2:0
Битовая глубина : 8 бит
Тип развёртки : Прогрессивная
Метод сжатия : С потерями
Бит/(Пиксели*Кадры) : 0.200
Размер потока : 611 Мбайт (93%)
Библиотека кодирования : XviD 1.2.1 (UTC 2008-12-04)
Аудио
Идентификатор : 1
Формат : MPEG Audio
Версия формата : Version 1
Профиль формата : Layer 3
Режим : Joint stereo
Расширение режима : MS Stereo
Идентификатор кодека : 55
Идентификатор кодека/Подсказка : MP3
Продолжительность : 47 м.
Вид битрейта : Постоянный
Битрейт : 128 Кбит/сек
Каналы : 2 канала
Частота : 48,0 КГц
Метод сжатия : С потерями
Размер потока : 43,5 Мбайт (7%)
Выравнивание : Разделение по промежуткам
Продолжительность промежутка : 40 мс. (1,00 видеокадр)
Время предзагрузки промежутка : 500 мс.
-Скриншоты:--Время раздачи: 24/7. До первых 5 скачавших.
Rip by Ponomarev1997
Яндекс.Метрика
Рейтинг@Mail.ru