[ Сегодня на трекере фрилич! Идет свободное скачивание без начисления Download ]

Влюбленный скорпион / Alacrán enamorado (Сантьяго Санноу) [2013, триллер, драма, мелодрама, HDRip] от New-Team | D | Лицензия

 

Создавать темы 11-Ноя-2013 11:11

Влюбленный скорпион
Alacran enamorado
-Страна: Испания / Morena Films
Жанр: триллер, драма, мелодрама
Год выпуска: 2013
Продолжительность: 01:40:05
Перевод: Профессиональный (дублированный) [Лицензия]
Cубтитры: нет
Режиссер: Сантьяго Санноу / Santiago Zannou-В ролях: Алекс Гонсалес, Джудит Диакате, Карлос Бардем, Мигель Анхель Сильвестре, Хавьер Бардем, Элио Сагуэс, Хавьер Мансебо, Досель Камана Гомбе, Карлос Каниовски, Малена Гутьеррес....
Описание: Хулиан, член неонацистской группировки, цель которой — зачистка улиц от «черных» и арабов, начинает тренироваться у Карломонте, в прошлом прославленного боксера, а ныне — пьяницы, разрушившего свою жизнь. Но рядом с этим человеком, жестким и упрямым, Хулиан постепенно начинает меняться. Он отдаляется от бывших дружков, влюбляется в Алису, девушку, работающую в спортзале, у него появляется новый приятель — его чернокожий спарринг-партнер Фрэнки. Новая жизнь ему нравится больше, чем прежняя. Но главарь неонацистов Луис считает, что Хулиан предатель, а это значит, что он должен понести жестокое наказание.---
-Качество видео: HDRip
Формат видео: AVI
Видео: 720x304, 24,000 fps, XviD build 73 ~902 kbps avg, 0.172 bit/pixel
Аудио: 48 kHz, MP3, 2 ch, ~128 kbps

Отчёт MediaInfo

Общий поток : 1040 Кбит/сек
Программа кодирования : VirtualDubMod 1.5.10.3 | www.virtualdub-fr.org || (build 2550/release)
Библиотека кодирования : VirtualDubMod build 2550/release
Видео
Идентификатор : 0
Формат : MPEG-4 Visual
Профиль формата : Advanced [email protected]
Параметр BVOP формата : 1
Параметр QPel формата : Нет
Параметр GMC формата : Без точки перехода
Параметр матрицы формата : Выборочная
Идентификатор кодека : XVID
Идентификатор кодека/Подсказка : XviD
Продолжительность : 1 ч. 40 м.
Битрейт : 902 Кбит/сек
Ширина : 720 пикселей
Высота : 304 пикселя
Соотношение сторон : 2,35:1
Частота кадров : 24,000 кадра/сек
Цветовое пространство : YUV
Субдискретизация насыщенности : 4:2:0
Битовая глубина : 8 бит
Тип развёртки : Прогрессивная
Метод сжатия : С потерями
Бит/(Пиксели*Кадры) : 0.172
Размер потока : 646 Мбайт (87%)
Библиотека кодирования : XviD 73
Аудио
Идентификатор : 1
Формат : MPEG Audio
Версия формата : Version 1
Профиль формата : Layer 3
Идентификатор кодека : 55
Идентификатор кодека/Подсказка : MP3
Продолжительность : 1 ч. 40 м.
Вид битрейта : Постоянный
Битрейт : 128 Кбит/сек
Каналы : 2 канала
Частота : 48,0 КГц
Метод сжатия : С потерями
Размер потока : 91,6 Мбайт (12%)
Выравнивание : Соединение по промежуткам
Продолжительность промежутка : 42 мс. (1,00 видеокадр)
Время предзагрузки промежутка : 504 мс.
Библиотека кодирования : LAME3.99r
Настройки программы : -m s -V 4 -q 2 -lowpass 17 -b 128

Скриншоты


_________________
Подпись отключена за нарушение правил форума

Создавать темы 26-Янв-2016 23:31 (спустя 2 года 2 месяца)

Топик был перенесен из форума Зарубежные Новинки (HD*Rip/LQ, DVDRip) в форум Зарубежные Фильмы (HD*Rip/LQ, DVDRip, SATRip, VHSRip)
T_O_M
Яндекс.Метрика
Рейтинг@Mail.ru