Падший / Fallen (Грегори Хоблит) [1998, Триллер, драма, криминал, BDRip 1080p] Dub

 

Создавать темы 09-Ноя-2013 18:47

«Чему быть, того не миновать»
Информация о фильме
Название: Падший
Оригинальное название: Fallen
Год выхода : 1998
Жанр: Триллер, драма, криминал
Режиссер: Грегори Хоблит
В ролях: Дензел Вашингтон, Джон Гудман, Дональд Сазерленд, Эмбет Дэвидц, Джеймс Гандольфини, Элиас Котеас, Гэбриел Коссес, Майкл Дж. Паган, Роберт Джой, Фрэнк Медрано
О фильме:
В городской тюрьме казнен по приговору суда опасный преступник, маньяк — убийца. С этого момента в городе происходят одно за другим загадочные убийства, притом, судя по телам жертв, убийства ритуального характера.
Полицейский детектив Хоббс, присутствовавший при казни маньяка, берется за расследование серии этих преступлений и, для начала, выясняет, как зовут того, кто их совершил. Установив его имя, сыщик приходит к страшному выводу: эти злодеяния — не человеческих рук дело, а демона — убийцы, вырвавшегося в наш мир…

Страна: США
Студия: Atlas Entertainment, Turner Pictures (I)
Продолжительность: 02:04:11
Перевод: Дублированный |R5| + Оригинал
Файл
Кодек: x264
Качество: BDRip 1080p (источник: BLUEBIRD / Blu-ray Disc / 1080p)
Видео: 1920х800 (2.40:1), 7927 Kbps, 23.976 fps, 0.215 bit/pixel
Аудио #1: 48.0 kHz, AC3 Dolby Digital, 3/2 (L,C,R,l,r) + LFE ch, 384 kbps [Дубляж, R5]
Аудио #2: 48.0 kHz, AC3 Dolby Digital, 3/2 (L,C,R,l,r) + LFE ch, 640 kbps [Оригинал, Английский]
Субтитры: Русские, английские [полные, SDH]
Семпл

x264

x264 [info]: frame I:1513 Avg QP:15.30 size:152269
x264 [info]: frame P:41375 Avg QP:18.03 size: 74342
x264 [info]: frame B:135766 Avg QP:19.67 size: 30007

MediaInfo

General
Unique ID : 207621929779215200087142673243849514867 (0x9C3287778284ED5ABE8FE35F71965F73)
Complete name : E:Fallen.1998.x264.BDRip.1080p.mkv
Format : Matroska
Format version : Version 2
File size : 7.76 GiB
Duration : 2h 4mn
Overall bit rate : 8 950 Kbps
Encoded date : UTC 2013-11-09 16:19:50
Writing application : mkvmerge v5.8.0 ('No Sleep / Pillow') built on Sep 2 2012 15:37:04
Writing library : libebml v1.2.3 + libmatroska v1.3.0
Video
ID : 1
Format : AVC
Format/Info : Advanced Video Codec
Format profile : [email protected]
Format settings, CABAC : Yes
Format settings, ReFrames : 5 frames
Codec ID : V_MPEG4/ISO/AVC
Duration : 2h 4mn
Bit rate : 7 927 Kbps
Width : 1 920 pixels
Height : 800 pixels
Display aspect ratio : 2.40:1
Frame rate mode : Constant
Frame rate : 23.976 fps
Color space : YUV
Chroma subsampling : 4:2:0
Bit depth : 8 bits
Scan type : Progressive
Bits/(Pixel*Frame) : 0.215
Stream size : 6.72 GiB (87%)
Writing library : x264 core 140 r2377 1ca7bb9
Encoding settings : cabac=1 / ref=5 / deblock=1:-3:-3 / analyse=0x3:0x133 / me=tesa / subme=11 / psy=1 / psy_rd=1.00:0.00 / mixed_ref=1 / me_range=32 / chroma_me=1 / trellis=2 / 8x8dct=1 / cqm=0 / deadzone=21,11 / fast_pskip=0 / chroma_qp_offset=-2 / threads=12 / lookahead_threads=1 / sliced_threads=0 / nr=0 / decimate=0 / interlaced=0 / bluray_compat=0 / constrained_intra=0 / bframes=6 / b_pyramid=2 / b_adapt=2 / b_bias=0 / direct=3 / weightb=1 / open_gop=0 / weightp=2 / keyint=240 / keyint_min=23 / scenecut=40 / intra_refresh=0 / rc=2pass / mbtree=0 / bitrate=7927 / ratetol=1.0 / qcomp=0.60 / qpmin=0 / qpmax=69 / qpstep=4 / cplxblur=20.0 / qblur=0.5 / ip_ratio=1.40 / pb_ratio=1.30 / aq=1:1.00
Language : English
Default : Yes
Forced : No
Audio #1
ID : 2
Format : AC-3
Format/Info : Audio Coding 3
Mode extension : CM (complete main)
Format settings, Endianness : Big
Codec ID : A_AC3
Duration : 2h 4mn
Bit rate mode : Constant
Bit rate : 384 Kbps
Channel count : 6 channels
Channel positions : Front: L C R, Side: L R, LFE
Sampling rate : 48.0 KHz
Bit depth : 16 bits
Compression mode : Lossy
Stream size : 341 MiB (4%)
Title : Дубляж, R5
Language : Russian
Default : Yes
Forced : No
Audio #2
ID : 3
Format : AC-3
Format/Info : Audio Coding 3
Mode extension : CM (complete main)
Format settings, Endianness : Big
Codec ID : A_AC3
Duration : 2h 4mn
Bit rate mode : Constant
Bit rate : 640 Kbps
Channel count : 6 channels
Channel positions : Front: L C R, Side: L R, LFE
Sampling rate : 48.0 KHz
Bit depth : 16 bits
Compression mode : Lossy
Stream size : 568 MiB (7%)
Title : Оригинал, Английский
Language : English
Default : No
Forced : No
Text #1
ID : 4
Format : UTF-8
Codec ID : S_TEXT/UTF8
Codec ID/Info : UTF-8 Plain Text
Language : Russian
Default : No
Forced : No
Text #2
ID : 5
Format : UTF-8
Codec ID : S_TEXT/UTF8
Codec ID/Info : UTF-8 Plain Text
Language : English
Default : No
Forced : No
Text #3
ID : 6
Format : UTF-8
Codec ID : S_TEXT/UTF8
Codec ID/Info : UTF-8 Plain Text
Title : SDH
Language : English
Default : No
Forced : No
Menu
00:00:00.000 : en:
00:02:24.853 : en:
00:05:08.266 : en:
00:09:23.563 : en:
00:14:36.125 : en:
00:16:55.013 : en:
00:19:53.066 : en:
00:23:04.883 : en:
00:26:22.205 : en:
00:31:11.995 : en:
00:36:02.076 : en:
00:40:32.847 : en:
00:43:42.620 : en:
00:49:28.799 : en:
00:55:18.732 : en:
01:02:09.767 : en:
01:06:42.039 : en:
01:10:30.184 : en:
01:12:46.236 : en:
01:17:04.369 : en:
01:19:39.483 : en:
01:21:45.066 : en:
01:27:18.566 : en:
01:33:15.548 : en:
01:37:33.055 : en:
01:39:37.429 : en:
01:44:43.360 : en:
01:47:05.377 : en:
01:52:25.488 : en:
01:55:01.269 : en:
01:58:58.381 : en:
02:00:35.770 : en:

Создавать темы 09-Ноя-2013 19:01 (спустя 14 минут)

Топик был перенесен из форума Зарубежные Фильмы (HD*Rip/LQ, DVDRip, SATRip, VHSRip) в форум Зарубежные Фильмы (HD)
[email protected]
Яндекс.Метрика
Рейтинг@Mail.ru