Лак для волос / Hairspray (2007) BDRip 720p

 

Создавать темы 09-Ноя-2013 17:37

Информация о фильме
Название: Лак для волос
Оригинальное название: Hairspray
Год выхода: 2007
Жанр: мюзикл, мелодрама, комедия
Режиссер: Адам Шэнкман
В ролях: Джон Траволта, Мишель Пфайффер, Кристофер Уокен, Аманда Байнс, Никки Блонски, Джеймс Марсден, Куин Латифа, Бриттани Сноу, Зак Эфрон, Элайджа Келли, Эллисон Джэнни
О фильме: Достаточно пухленькая девушка Трейси Тернблад, мечтающая стать танцовщицей, доказывает на собственном примере, как можно преодолеть трудности и стать звездой популярного танцевального телешоу.
Выпущено: США, Великобритания / New Line Cinema, Ingenious Film Partners
Продолжительность: 01:56:06
Перевод: Профессиональный многоголосый + Дублированный

Файл
Формат: MKV
Качество: BDRip
Видео кодек: AVC/H.264
Видео: 1280х544, 23.976fps, 4430 kb/s
Звук: 48KHz, DTS, 6ch, 1536 kb/s | Многоголосый
Звук: 48KHz, AC3, 6ch, 448 kb/s | Дублированный
Звук: 48KHz, DTS, 6ch, 1536 kb/s | Английский
Cубтитры: Русские / Английские
Навигация по главам: Есть
Доп. информация: Перевод песен - только форсированными субтитрами. Дорожка с многоголосым переводом получена наложением выделенных голосов на центр декодированного DTS-HD MA.

MediaInfo

Format : Matroska
File size : 6.54 GiB
Duration : 1h 56mn
Overall bit rate : 8 057 Kbps
Movie name : Hairspray.BDRip.720p.DXVA[shartm]
Encoded date : UTC 2010-12-21 16:19:56
Writing application : mkvmerge v4.4.0 ('Die Wiederkehr') built on Oct 31 2010 21:52:48
Writing library : libebml v1.0.0 + libmatroska v1.0.0
Cover : Yes
Video
ID : 1
Format : AVC
Format/Info : Advanced Video Codec
Format profile : [email protected]
Format settings, CABAC : Yes
Format settings, ReFrames : 11 frames
Codec ID : V_MPEG4/ISO/AVC
Duration : 1h 56mn
Bit rate : 4 429 Kbps
Width : 1 280 pixels
Height : 544 pixels
Display aspect ratio : 2.35:1
Frame rate : 23.976 fps
Color space : YUV
Chroma subsampling : 4:2:0
Bit depth : 8 bits
Scan type : Progressive
Bits/(Pixel*Frame) : 0.265
Stream size : 3.59 GiB (55%)
Writing library : x264 core 112 r1834 a51816a
Encoding settings : cabac=1 / ref=11 / deblock=1:-2:-1 / analyse=0x3:0x113 / me=tesa / subme=10 / psy=1 / psy_rd=1.15:0.00 / mixed_ref=1 / me_range=32 / chroma_me=1 / trellis=2 / 8x8dct=1 / cqm=0 / deadzone=21,11 / fast_pskip=0 / chroma_qp_offset=-2 / threads=9 / sliced_threads=0 / nr=0 / decimate=1 / interlaced=0 / constrained_intra=0 / bframes=8 / b_pyramid=2 / b_adapt=2 / b_bias=0 / direct=1 / weightb=1 / open_gop=0 / weightp=2 / keyint=250 / keyint_min=23 / scenecut=40 / intra_refresh=0 / rc_lookahead=40 / rc=crf / mbtree=0 / crf=16.0 / qcomp=0.60 / qpmin=10 / qpmax=51 / qpstep=4 / vbv_maxrate=50000 / vbv_bufsize=62500 / crf_max=0.0 / ip_ratio=1.40 / pb_ratio=1.30 / aq=2:1.00 / nal_hrd=none
Language : English
Audio #1
ID : 2
Format : DTS
Format/Info : Digital Theater Systems
Codec ID : A_DTS
Duration : 1h 56mn
Bit rate mode : Constant
Bit rate : 1 510 Kbps
Channel(s) : 6 channels
Channel positions : Front: L C R, Side: L R, LFE
Sampling rate : 48.0 KHz
Bit depth : 24 bits
Compression mode : Lossy
Stream size : 1.22 GiB (19%)
Title : Rus.MVO [DTS 5.1 @1510 kbps]
Language : Russian
Audio #2
ID : 3
Format : AC-3
Format/Info : Audio Coding 3
Mode extension : CM (complete main)
Codec ID : A_AC3
Duration : 1h 56mn
Bit rate mode : Constant
Bit rate : 448 Kbps
Channel(s) : 6 channels
Channel positions : Front: L C R, Side: L R, LFE
Sampling rate : 48.0 KHz
Bit depth : 16 bits
Compression mode : Lossy
Stream size : 372 MiB (6%)
Title : Rus.Dub [AC3 5.1 @448kbps]
Language : Russian
Audio #3
ID : 4
Format : DTS
Format/Info : Digital Theater Systems
Codec ID : A_DTS
Duration : 1h 56mn
Bit rate mode : Constant
Bit rate : 1 510 Kbps
Channel(s) : 6 channels
Channel positions : Front: L C R, Side: L R, LFE
Sampling rate : 48.0 KHz
Bit depth : 24 bits
Compression mode : Lossy
Stream size : 1.22 GiB (19%)
Title : Eng.Original [DTS 5.1 @1510 kbps]
Text #1
ID : 5
Format : UTF-8
Codec ID : S_TEXT/UTF8
Codec ID/Info : UTF-8 Plain Text
Title : Rus (forced)
Language : Russian
Text #2
ID : 6
Format : UTF-8
Codec ID : S_TEXT/UTF8
Codec ID/Info : UTF-8 Plain Text
Title : Rus (full)
Language : Russian
Text #3
ID : 7
Format : UTF-8
Codec ID : S_TEXT/UTF8
Codec ID/Info : UTF-8 Plain Text
Title : Eng
Language : English
Menu
00:00:00.000 : en:Good Morning Baltimore
00:06:33.682 : en:The Nicest Kids in Town
00:11:50.037 : en:"I Want to Be Famous"
00:16:43.036 : en:Meet Miss Baltimore Crabs
00:20:45.026 : en:Detention Groove
00:24:18.028 : en:I Can Hear the Bells
00:28:23.021 : en:Ladies' Choice
00:33:44.006 : en:The New Girl in Town
00:37:35.026 : en:Welcome to the 60s
00:46:45.030 : en:Run and Tell That
00:52:24.032 : en:Big, Blonde and Beautiful
00:57:56.070 : en:Toy Shop Seduction
01:08:05.007 : en:Timeless to Me
01:13:35.125 : en:I Know Where I've Been
01:18:19.115 : en:On the Run From the Law
01:24:25.103 : en:Without Love
01:28:25.132 : en:In the Can
01:35:26.207 : en:Miss Teenage Hairspray Dance Off
01:41:51.181 : en:You Can't Stop the Beat
01:46:20.073 : en:End Credits
Яндекс.Метрика
Рейтинг@Mail.ru