Далай Лама. Жизнь после жизни / Dalaï Lama. Une Vie Après l`Autre (Франк Сансон / Franck Sanson) [2008 г., документальный, биография, IPTVRip] VO

 

Создавать темы 08-Сен-2014 05:04

Далай Лама. Жизнь после жизни / Dalaï Lama. Une Vie Après l`Autre- Год выпуска: 2008 г.
Производство: Франция , ARTE France & Coup d`Oeil
Жанр: документальный, биография
Продолжительность: 00:51:53
Перевод: Профессиональный (одноголосый, закадровый)
Режиссёр: Франк Сансон / Franck Sanson-В ролях: Его Святейшество Далай Лама XIV-Описание: Фильм представляет уникальное интервью с Далай Ламой. Лауреат Нобелевской премии мира и духовный лидер Тибета, проживающий в изгнании, рассказывает о своей жизни и о причинах культурного геноцида и демографического террора в оккупированном Китаем Тибете.
Выросшая в изгнании тибетская молодежь сегодня разрывается между верностью буддистскому принципу ненасилия и стремлением к защите независимости Тибета. Эти настроения находят выражение в пламенных стихах поэта и борца за свободу Тенцина Цундуе. Тем временем, сам Далай Лама продолжает свою духовную миссию, неустанно прокладывая путь к примирению «китайских братьев и сестёр».
-Качество видео: IPTVRip
Контейнер: AVI
Видео кодек: XviD
Аудио кодек: MP3
Видео: 704x400, 1345 kbps, 25 fps, 0.191 bit/pixel
Аудио: 128 kbps, 2 ch, 48.0 kHz
Cубтитры: отсутствуют

Media Info

Общее
Полное имя : Далай Лама. Жизнь после жизни_ Dalaï Lama. Une Vie Après l`Autre.2008.[IPTVRip].avi
Формат : AVI
Формат/Информация : Audio Video Interleave
Размер файла : 550 Мбайт
Продолжительность : 51 м.
Общий поток : 1483 Кбит/сек
Программа кодирования : VirtualDubMod 1.5.10.2 (build 2540/release)
Библиотека кодирования : VirtualDubMod build 2540/release
Видео
Идентификатор : 0
Формат : MPEG-4 Visual
Профиль формата : Advanced [email protected]
Параметр BVOP формата : 1
Параметр QPel формата : Нет
Параметр GMC формата : Без точки перехода
Параметр матрицы формата : Default (MPEG)
Идентификатор кодека : XVID
Идентификатор кодека/Подсказка : XviD
Продолжительность : 51 м.
Битрейт : 1345 Кбит/сек
Ширина : 704 пикселя
Высота : 400 пикселей
Соотношение сторон : 16:9
Частота кадров : 25,000 кадров/сек
Цветовое пространство : YUV
Субдискретизация насыщенности : 4:2:0
Битовая глубина : 8 бит
Тип развёртки : Прогрессивная
Метод сжатия : С потерями
Бит/(Пиксели*Кадры) : 0.191
Размер потока : 499 Мбайт (91%)
Библиотека кодирования : XviD 1.2.1 (UTC 2008-12-04)
Аудио
Идентификатор : 1
Формат : MPEG Audio
Версия формата : Version 1
Профиль формата : Layer 3
Идентификатор кодека : 55
Идентификатор кодека/Подсказка : MP3
Продолжительность : 51 м.
Вид битрейта : Постоянный
Битрейт : 128 Кбит/сек
Каналы : 2 канала
Частота : 48,0 КГц
Метод сжатия : С потерями
Размер потока : 47,5 Мбайт (9%)
Выравнивание : Соединение по промежуткам
Продолжительность промежутка : 40 мс. (1,00 видеокадр)
Время предзагрузки промежутка : 504 мс.
Библиотека кодирования : LAME3.98r
Настройки программы : -m s -V 4 -q 2 -lowpass 17 -b 128

Ещё

Яндекс.Метрика
Рейтинг@Mail.ru