Буддизм и наука: точки соприкосновения / Where Science and Buddhism Meet (Джеральд Пенилла / Gerald Penilla) [2009 г., документальный, научно-познавательный, DVDRip] VO

 

Создавать темы 08-Сен-2014 04:47

Буддизм и наука: точки соприкосновения / Where Science and Buddhism Meet-Пустота, Единство и природа Реальности / Emptiness, Oneness and the nature of Reality- Год выпуска: 2009 г.
Производство: США
Жанр: документальный, научно-познавательный
Продолжительность: 00:21:30
Перевод: Профессиональный (одноголосый, закадровый)
Режиссёр: Джеральд Пенилла / Gerald Penilla-Описание: Фильм рассказывает о параллелях между самой аналитической "религией" - буддизмом - и самой "религиозной" наукой - квантовой физикой.
Доходчиво и просто объясняются вопросы Пустоты, Единства и природы того, что мы привыкли называть Реальностью.
-Качество видео: DVDRip
Контейнер: AVI
Видео кодек: XviD
Аудио кодек: MP3
Видео: 1280x720, 711 kbps, 24 fps, 0.032 bit/pixel
Аудио: 128 kbps, 2 ch, 44.1 kHz
Cубтитры: отсутствуют

Media Info

Общее
Полное имя : Буддизм и наука. Точки соприкосновения.2009.[DVDRip].avi
Формат : AVI
Формат/Информация : Audio Video Interleave
Размер файла : 131 Мбайт
Продолжительность : 21 м.
Общий поток : 851 Кбит/сек
Программа кодирования : AviInfo версия 1.1
Видео
Идентификатор : 0
Формат : VP6
Профиль формата : Heightened Sharpness
Идентификатор кодека : VP6F
Идентификатор кодека/Подсказка : On2
Продолжительность : 21 м.
Битрейт : 711 Кбит/сек
Ширина : 1280 пикселей
Высота : 720 пикселей
Соотношение сторон : 16:9
Частота кадров : 24,000 кадра/сек
Бит/(Пиксели*Кадры) : 0.032
Размер потока : 109 Мбайт (84%)
Аудио
Идентификатор : 1
Формат : MPEG Audio
Версия формата : Version 1
Профиль формата : Layer 3
Режим : Joint stereo
Расширение режима : MS Stereo
Идентификатор кодека : 55
Идентификатор кодека/Подсказка : MP3
Продолжительность : 21 м.
Вид битрейта : Постоянный
Битрейт : 128 Кбит/сек
Каналы : 2 канала
Частота : 44,1 КГц
Метод сжатия : С потерями
Размер потока : 19,7 Мбайт (15%)
Выравнивание : Соединение по промежуткам
Продолжительность промежутка : 26 мс. (0,63 видеокадр)
---
Яндекс.Метрика
Рейтинг@Mail.ru