[ Сегодня на трекере фрилич! Идет свободное скачивание без начисления Download ]

Башня / The Tower (Чи-хун Ким / Ji-hoon Kim) [2012 г., Драма., BDRip, 720p] DVO Sub (Ger)

 

Создавать темы 26-Авг-2014 05:05

-Башня / The Tower-- Производство: Южная Корея.
Год выпуска: 2012 г.
Жанр: Драма.
Продолжительность: 02:01:59
Мировая премьера: 25 декабря 2012
Перевод: Любительский (двухголосый, закадровый) den904 и DeadSno
Оригинальный аудиопоток: Корейский
Режиссер: Чи-хун Ким / Ji-hoon Kim-В ролях: Мина Чо, Ким Сан Ген, Соль Гён Гу, Сон Ё Чжин-Описание: В канун Рождества ужасный пожар охватывает 120-этажное здание башен-близнецов в центре Сеула.-
Качество видео: BDRip 720p
Контейнер: MKV
Видео кодек: H.264
Аудио кодек: DTS, АС3
Видео: MPEG-4 AVC, 1280 х 542 pixels, 4823 Kbps, 0.29 bit/pixel, [email protected], 23.976 fps
Аудио 1 Russian: AC3, 192 Kbps, 2 channels, Front: L R, 48.0 KHz, 16 bits
Аудио 2 Korean: DTS, 1509 Kbps, 6 channels, Front: L C R, Side: L R, LFE, 48.0 KHz, 16 bits
Cубтитры: German, Arabic, Hungarian
Формат субтитров: softsub (SRT)

Media Info

Общее
Уникальный идентификатор : 217835942766157834750361766161195218754 (0xA3E1AD3000C0B72F84213F7B43043742)
Полное имя : D:\Закачки\The.Tower.2012.BDRip720p.DTS.АС\The.Tower.2012.BDRip720p.DTS.АС3.DVO.Original.sub.mkv
Формат : Matroska
Версия формата : Version 4 / Version 2
Размер файла : 5,67 Гбайт
Продолжительность : 2 ч. 1 м.
Общий поток : 6656 Кбит/сек
Название фильма : Reliz for = Rirat.Ca =
Дата кодирования : UTC 2014-08-25 07:04:48
Программа кодирования : mkvmerge v7.1.0 ('Good Love') 64bit built on Jul 27 2014 13:06:55
Библиотека кодирования : libebml v1.3.0 + libmatroska v1.4.1
_STATISTICS_WRITING_APP : mkvmerge v7.1.0 ('Good Love') 64bit built on Jul 27 2014 13:06:55
_STATISTICS_WRITING_DATE_UTC : 2014-08-25 07:04:48
_STATISTICS_TAGS : BPS DURATION NUMBER_OF_FRAMES NUMBER_OF_BYTES
DURATION : 01:54:02.560000000
NUMBER_OF_FRAMES : 1309
NUMBER_OF_BYTES : 34644
Видео
Идентификатор : 1
Формат : AVC
Формат/Информация : Advanced Video Codec
Профиль формата : [email protected]
Параметр CABAC формата : Да
Параметр ReFrames формата : 11 кадров
Идентификатор кодека : V_MPEG4/ISO/AVC
Продолжительность : 2 ч. 1 м.
Битрейт : 4823 Кбит/сек
Ширина : 1280 пикселей
Высота : 542 пикселя
Соотношение сторон : 2,35:1
Режим частоты кадров : Постоянный
Частота кадров : 23,976 кадра/сек
Цветовое пространство : YUV
Субдискретизация насыщенности : 4:2:0
Битовая глубина : 8 бит
Тип развёртки : Прогрессивная
Бит/(Пиксели*Кадры) : 0.290
Размер потока : 4,11 Гбайт (72%)
Библиотека кодирования : x264 core 130 r2274+704+40 24c804d tMod+MixAQ [[email protected]:2:0 X86_64]
Настройки программы : cabac=1 / ref=11 / deblock=1:-3:-3 / analyse=0x3:0x113 / me=umh / subme=11 / psy=1 / fade_compensate=0.00 / psy_rd=1.05:0.00 / mixed_ref=1 / me_range=48 / chroma_me=1 / trellis=2 / 8x8dct=1 / cqm=0 / deadzone=21,11 / fast_pskip=0 / chroma_qp_offset=-2 / threads=36 / lookahead_threads=4 / sliced_threads=0 / nr=0 / decimate=0 / interlaced=0 / bluray_compat=0 / constrained_intra=0 / fgo=0 / bframes=8 / b_pyramid=2 / b_adapt=2 / b_bias=0 / direct=3 / weightb=1 / open_gop=0 / weightp=2 / keyint=240 / keyint_min=24 / scenecut=40 / intra_refresh=0 / rc=crf / mbtree=0 / crf=17.5000 / qcomp=0.72 / qpmin=0 / qpmax=69 / qpstep=4 / ip_ratio=1.25 / pb_ratio=1.20 / aq=4:0.90 / aq-sensitivity=10.00 / aq-ifactor=1.00 / aq-pfactor=1.00 / aq-bfactor=1.00 / aq2=0
Язык : English
Default : Да
Forced : Нет
_STATISTICS_WRITING_APP : mkvmerge v7.1.0 ('Good Love') 64bit built on Jul 27 2014 13:06:55
_STATISTICS_WRITING_DATE_UTC : 2014-08-25 07:04:48
_STATISTICS_TAGS : BPS DURATION NUMBER_OF_FRAMES NUMBER_OF_BYTES
DURATION : 02:01:59.312000000
NUMBER_OF_FRAMES : 175488
NUMBER_OF_BYTES : 4521801048
Аудио #1
Идентификатор : 2
Формат : AC-3
Формат/Информация : Audio Coding 3
Расширение режима : CM (complete main)
Параметр Endianness формата : Big
Идентификатор кодека : A_AC3
Продолжительность : 2 ч. 1 м.
Вид битрейта : Постоянный
Битрейт : 192 Кбит/сек
Каналы : 2 канала
Расположение каналов : Front: L R
Частота : 44,1 КГц
Битовая глубина : 16 бит
Метод сжатия : С потерями
Размер потока : 168 Мбайт (3%)
Заголовок : Russian.AC3.DVO
Язык : Russian
Default : Да
Forced : Нет
Аудио #2
Идентификатор : 3
Формат : DTS
Формат/Информация : Digital Theater Systems
Режим : 16
Параметр Endianness формата : Big
Идентификатор кодека : A_DTS
Продолжительность : 2 ч. 1 м.
Вид битрейта : Постоянный
Битрейт : 1509 Кбит/сек
Каналы : 6 каналов
Расположение каналов : Front: L C R, Side: L R, LFE
Частота : 48,0 КГц
Битовая глубина : 16 бит
Метод сжатия : С потерями
Размер потока : 1,29 Гбайт (23%)
Заголовок : Korean DTS 5.1 @ 1509 kbps
Язык : Korean
Default : Нет
Forced : Нет
Текст #1
Идентификатор : 4
Формат : PGS
Режим смешивания : zlib
Идентификатор кодека : S_HDMV/PGS
Идентификатор кодека/Информация : The same subtitle format used on BDs/HD-DVDs
Заголовок : German
Язык : Dutch
Default : Нет
Forced : Нет
Текст #2
Идентификатор : 5
Формат : UTF-8
Идентификатор кодека : S_TEXT/UTF8
Идентификатор кодека/Информация : UTF-8 Plain Text
Заголовок : Arabic.str
Язык : Arabic
Default : Нет
Forced : Нет
Текст #3
Идентификатор : 6
Формат : UTF-8
Идентификатор кодека : S_TEXT/UTF8
Идентификатор кодека/Информация : UTF-8 Plain Text
Заголовок : Hungarian.str
Язык : Hungarian
Default : Нет
Forced : Нет

Скриншоты

Яндекс.Метрика
Рейтинг@Mail.ru