Кенау / Kenau (Маартен Треёньет)(2014,Исторический, Боевик, Приключения) BDRip [AVO]

 

Создавать темы 24-Авг-2014 15:05

-Кенау / Kenau (2014) BDRip- Год выпуска: 2014
Производство: Нидерланды, Венгрия, Бельгия
Жанр: Исторический, Боевик, Приключения
Режиссер: Маартен Треёньет
Актеры: Моник Хендрикс, Лиза Смит, Барри Атсма, Аттила Арпа, Салли Хармсен, Питер Ван ден Бегин, Маттис ван де Санде Бакхуйзен, Йап Спийкерс, Саймон Нэйдер, Зольтан Папп
Описание фильма:
Исторические действия этого фильма происходят в далёком 1572 году. В те нелёгкие годы, когда часть Нидерландов была оккупированна испанцами, на борьбу за свободу встала мать двух дочерей Кенау. Её старшую дочь казнили, заживо спалив на костре. С болью в душе и ненавистью к испанцам Кенау поднялась и повела за собой целую армию женщин на освободительную борьбу, по ходу рискуя младшей дочерью, которая тоже подвергалась опасности...
Перевод: Одноголосый закадровый, авторский
Озвучка / Автор перевода: А. Дольский
Субтитры: Отсутствуют- -Дата мировой премьеры: 06.03.2014
Дата российской премьеры: 06.03.2014
Продолжительность: 01:52:24
Качество видео: BDRip
Видеокодек: Xvid
Битрейт видео: ~1405 Кбит/с
Размер кадра: 720x304
Аудиокодек: AC3 5.1
Битрейт аудио: 448 Кбит/с

Mediainfo

Полное имя : D:\UP\Kenau.2014.BDRip.1400.ExKinoRay.avi
Формат : AVI
Формат/Информация : Audio Video Interleave
Размер файла : 1,46 Гбайт
Продолжительность : 1 ч. 52 м.
Общий поток : 1862 Кбит/сек
Режиссёр : Enigma
Программа кодирования : VirtualDubMod 1.5.10.2 (build 2540/release)
Библиотека кодирования : VirtualDubMod build 2540/release
Правообладатель : ExKinoRay
Видео
Идентификатор : 0
Формат : MPEG-4 Visual
Профиль формата : Advanced [email protected]
Параметр BVOP формата : 1
Параметр QPel формата : Нет
Параметр GMC формата : Без точки перехода
Параметр матрицы формата : Выборочная
Идентификатор кодека : XVID
Идентификатор кодека/Подсказка : XviD
Продолжительность : 1 ч. 52 м.
Битрейт : 1405 Кбит/сек
Ширина : 720 пикселей
Высота : 304 пикселя
Соотношение сторон : 2,35:1
Частота кадров : 23,976 кадра/сек
Цветовое пространство : YUV
Субдискретизация насыщенности : 4:2:0
Битовая глубина : 8 бит
Тип развёртки : Прогрессивная
Метод сжатия : С потерями
Бит/(Пиксели*Кадры) : 0.268
Размер потока : 1,10 Гбайт (75%)
Библиотека кодирования : XviD 1.2.1 (UTC 2008-12-04)
Аудио
Идентификатор : 1
Формат : AC-3
Формат/Информация : Audio Coding 3
Расширение режима : CM (complete main)
Параметр Endianness формата : Big
Идентификатор кодека : 2000
Продолжительность : 1 ч. 52 м.
Вид битрейта : Постоянный
Битрейт : 448 Кбит/сек
Каналы : 6 каналов
Расположение каналов : Front: L C R, Side: L R, LFE
Частота : 48,0 КГц
Битовая глубина : 16 бит
Метод сжатия : С потерями
Размер потока : 360 Мбайт (24%)
Выравнивание : Разделение по промежуткам
Продолжительность промежутка : 42 мс. (1,00 видеокадр)
Время предзагрузки промежутка : 500 мс.
-Скриншоты:
Яндекс.Метрика
Рейтинг@Mail.ru