[ Сегодня на трекере фрилич! Идет свободное скачивание без начисления Download ]

Новый Человек-паук: Высокое напряжение / The Amazing Spider-Man 2: Rise of Electro (2014) DVD9

 

Создавать темы 24-Авг-2014 09:11

-Новый Человек-паук: Высокое напряжение / The Amazing Spider-Man 2: Rise of Electro (2014) DVD9«No more secrets»- Год выпуска: 2014
Производство: США / Columbia Pictures, Marvel Enterprises, Avi Arad Productions, Matt Tolmach Productions
Жанр: Фэнтези, боевик, приключения
Режиссер: Марк Уэбб
Продюсеры: Ави Арад, Мэттью Толмак, Алекс Куртцман
Актеры: Эндрю Гарфилд, Эмма Стоун, Джейми Фокс, Дэйн ДеХаан, Салли Филд, Колм Фиор, Фелисити Джонс, Пол Джаматти, Мартон Чокаш, Кэмпбелл Скотт
Описание фильма:
Питер Паркер под маской Человека-паука по-прежнему спасает мир от злодеев и преступников, а свободное время проводит со своей возлюбленной Гвен, но школьная пора близится к концу, и впереди героев ждет взрослая жизнь. Питер помнит о том, что дал отцу Гвен слово навсегда уйти из жизни девушки, тем самым больше не подвергая ее опасности. Однако сдержать это обещание не так просто. Судьба готовит Питеру сюрпризы: на его пути появится новый противник — Электро, а также ему будет суждено вновь встретиться с давним приятелем Гарри Озборном и узнать много нового о прошлом своей семьи.
Перевод: Дублированный (лицензия)
Субтитры: Вшитые отключаемые
Язык субтитров: Английский, арабский, эстонский, иврит, латышский, литовский, русский-Дата мировой премьеры: 10 апреля 2014
Дата российской премьеры: 24 апреля 2014, «WDSSPR»
Дата выхода DVD релиза: 21 августа 2014, «CP Дистрибуция»
[thumb]http://sendfile.su/1014382[/thumb]-Продолжительность: 02:15:48
Качество видео: DVD9 (R5)
Видео: MPEG-2, [email protected] (PAL 16:9), ~4000 Кбит/сек
Аудио 1: AC3 5.1, 384 Кбит/сек [Английский - оригинал]
Аудио 2: AC3 5.1, 384 Кбит/сек [Казахский - дублированный]
Аудио 3: AC3 5.1, 384 Кбит/сек [Русский - дублированный]
Аудио 4: AC3 5.1, 384 Кбит/сек [Украинский - дублированный]
Аудио 5: AC3 2.0, 192 Кбит/сек [Английский - комментарий]
Доп. материалы: Аудиокомментарий создателей фильма, Удалённые и альтернативные сцены, Музыкальное видео Alicia Keys - "It's On Again"

DVDInfo:

Title: The Amazing Spider-Man 2. Rise of Electro (2014) DVD9
Size: 7.24 Gb ( 7 596 336,00 KBytes ) - DVD-9
Enabled regions: 1, 2, 3, 4, 5, 6, 7, 8
VTS_01 :
  Play Length: 02:15:48
  Video: PAL 16:9 (720x576) VBR, Auto Letterboxed
  Audio:
      English (Dolby AC3, 6 ch)
      Kazakh (Dolby AC3, 6 ch)
      Russian (Dolby AC3, 6 ch)
      Ukrainian (Dolby AC3, 6 ch)
      English (Dolby AC3, 2 ch)
  Subtitles:
      English
      Arabic
      Estonian
      Hebrew
      Latvian
      Lithuanian
      Russian
      Russian
VTS_02 :
  Play Length: 00:08:04+00:01:39+00:04:12+00:01:03+00:01:25+00:00:00+00:00:00+00:00:00+00:00:00+00:00:00+{00:00:00}+{00:00:00}
  Video: PAL 16:9 (720x576) VBR, Auto Letterboxed
  Audio:
      English (Dolby AC3, 2 ch)
      English (Dolby AC3, 2 ch)
  Subtitles:
      Russian
      Russian
VTS_03 :
  Play Length: 00:03:41+00:00:00+00:00:00+00:00:00+00:00:00+00:00:00
  Video: PAL 16:9 (720x576) VBR, Auto Letterboxed
  Audio:
      English (Dolby AC3, 2 ch)
VTS_04 :
  Play Length: 00:00:00+00:00:00+00:00:00+00:00:00+00:00:00+00:00:00+00:00:00+00:00:00+00:00:00
  Video: PAL 16:9 (720x576) VBR, Auto Letterboxed
VTS_05 :
  Play Length: 00:00:00+00:00:00+00:00:00+00:00:00+00:00:00+00:00:00+00:00:00+00:00:00+00:00:00
  Video: PAL 16:9 (720x576) VBR, Auto Letterboxed
VTS_06 :
  Play Length: 00:00:00+00:00:00+00:00:00+00:00:00
  Video: PAL 16:9 (720x576) VBR, Auto Letterboxed
VTS_07 :
  Play Length: 00:00:00+00:00:00+00:00:00+00:00:00
  Video: PAL 16:9 (720x576) VBR, Auto Letterboxed
VTS_08 :
  Play Length: 00:07:19+00:02:28+00:01:17+00:00:00+00:00:00+00:00:00+00:00:00+00:00:00
  Video: PAL 16:9 (720x576) VBR, Auto Letterboxed
  Audio:
      English (Dolby AC3, 6 ch)
VTS_09 :
  Play Length: 00:01:58+00:00:00+00:00:00
  Video: PAL 16:9 (720x576) VBR, Auto Letterboxed
  Audio:
      English (Dolby AC3, 2 ch)
VTS_10 :
  Play Length: 00:00:00+00:00:00+00:00:00+00:00:00+00:00:00
  Video: PAL 4:3 (720x576) VBR
VTS_11 :
  Play Length: 00:00:00+{00:00:00}+{00:00:00}
  Video: PAL 16:9 (720x576) VBR, Auto Letterboxed
VTS_12 :
  Play Length: 00:00:00+00:00:10+00:00:10+00:00:12+00:00:10+00:00:08+00:00:10+00:00:10+{00:00:00}+{00:00:10}+{00:00:10}+{00:00:12}+{00:00:10}+{00:00:08}+{00:00:09}+{00:00:10}+{00:00:00}+00:00:10+00:00:10+00:00:05+00:00:10+00:00:10+00:00:10+00:00:10+00:00:10+00:00:05+00:00:10+00:00:10+00:00:10+00:00:10+00:00:08+00:00:05+{00:00:10}+00:00:05+00:00:10+00:00:05+00:00:10+00:00:10+00:00:00+{00:00:10}
  Video: PAL 16:9 (720x576) VBR, Auto Letterboxed
  Audio:
      Not specified (Dolby AC3, 2 ch)
VTS_13 :
  Play Length: 00:00:00+{00:00:00}+00:00:00
  Video: PAL 4:3 (720x576) VBR
VTS_14 :
  Play Length: 00:00:00+00:00:05+00:00:05+00:00:05+00:00:05+00:00:05+00:00:05+00:00:05+00:00:05+00:00:05+00:00:05+00:00:05+00:00:05+00:00:05+00:00:05+00:00:05+00:00:05+00:00:05+00:00:05+00:00:05+00:00:05+00:00:05+00:00:05+00:00:05+00:00:05+00:00:05+00:00:05+00:00:05+00:00:00
  Video: PAL 16:9 (720x576) VBR, Auto Letterboxed
  Audio:
      Not specified (Dolby AC3, 2 ch)
VTS_15 :
  Play Length: 00:00:00
  Video: PAL 16:9 (720x576) VBR, Auto Letterboxed
* Menus Information *
VIDEO_TS Menu
Video:
      PAL 16:9 (720x576) VBR
      Auto Pan&Scan
Audio:
      Not specified (Dolby AC3, 6 ch)
English Language Unit :
      Title Menu
VTS_01 Menu
Video:
      PAL 16:9 (720x576) VBR
      Auto Pan&Scan
Audio:
      Not specified (Dolby AC3, 2 ch)
English Language Unit :
      Root Menu
      Chapter (PTT) Menu
VTS_02 Menu
Video:
      PAL 4:3 (720x576) VBR
English Language Unit :
      Root Menu
VTS_03 Menu
Video:
      PAL 4:3 (720x576) VBR
English Language Unit :
      Root Menu
VTS_04 Menu
Video:
      PAL 4:3 (720x576) VBR
English Language Unit :
      Root Menu
VTS_05 Menu
Video:
      PAL 4:3 (720x576) VBR
English Language Unit :
      Root Menu
VTS_06 Menu
Video:
      PAL 4:3 (720x576) VBR
English Language Unit :
      Root Menu
VTS_07 Menu
Video:
      PAL 4:3 (720x576) VBR
English Language Unit :
      Root Menu
VTS_08 Menu
Video:
      PAL 4:3 (720x576) VBR
English Language Unit :
      Root Menu
VTS_09 Menu
Video:
      PAL 4:3 (720x576) VBR
English Language Unit :
      Root Menu
VTS_10 Menu
Video:
      PAL 4:3 (720x576) VBR
English Language Unit :
      Root Menu
VTS_11 Menu
Video:
      PAL 4:3 (720x576) VBR
English Language Unit :
      Root Menu
VTS_12 Menu
Video:
      PAL 4:3 (720x576) VBR
English Language Unit :
      Root Menu
VTS_13 Menu
Video:
      PAL 16:9 (720x576) VBR
      Auto Pan&Scan
English Language Unit :
      Root Menu
VTS_14 Menu
Video:
      PAL 16:9 (720x576) VBR
      Auto Pan&Scan
English Language Unit :
      Root Menu
VTS_15 Menu
Video:
      PAL 4:3 (720x576) VBR
English Language Unit :
      Root Menu

MediaInfo:

Общее
Полное имя                               : D:\Видео\The Amazing Spider-Man 2. Rise of Electro (2014) DVD9\VIDEO_TS\VTS_01_2.VOB
Формат                                   : MPEG-PS
Размер файла                             : 1024 Мбайт
Продолжительность                        : 24 м.
Режим общего битрейта                    : Переменный
Общий поток                              : 5873 Кбит/сек
Видео
Идентификатор                            : 224 (0xE0)
Формат                                   : MPEG Video
Версия формата                           : Version 2
Профиль формата                          : [email protected]
Параметр BVOP формата                    : Да
Параметр матрицы формата                 : Выборочная
Параметр GOP формата                     : Variable
Продолжительность                        : 24 м.
Вид битрейта                             : Переменный
Битрейт                                  : 4028 Кбит/сек
Максимальный битрейт                     : 9800 Кбит/сек
Ширина                                   : 720 пикселей
Высота                                   : 576 пикселей
Соотношение сторон                       : 16:9
Частота кадров                           : 25,000 кадров/сек
Стандарт вещания                         : PAL
Цветовое пространство                    : YUV
Субдискретизация насыщенности            : 4:2:0
Битовая глубина                          : 8 бит
Тип развёртки                            : Прогрессивная
Порядок развёртки                        : Верхнее поле первое
Метод сжатия                             : С потерями
Бит/(Пиксели*Кадры)                      : 0.388
Временной код первого кадра              : 01:22:58:16
Оригинал временного кода                 : Group of pictures header
Размер потока                            : 702 Мбайт (69%)
Аудио #1
Идентификатор                            : 189 (0xBD)-128 (0x80)
Формат                                   : AC-3
Формат/Информация                        : Audio Coding 3
Расширение режима                        : CM (complete main)
Параметр Endianness формата              : Big
Режим смешивания                         : DVD-Video
Продолжительность                        : 24 м.
Вид битрейта                             : Постоянный
Битрейт                                  : 384 Кбит/сек
Каналы                                   : 6 каналов
Расположение каналов                     : Front: L C R, Side: L R, LFE
Частота                                  : 48,0 КГц
Битовая глубина                          : 16 бит
Метод сжатия                             : С потерями
Задержка видео                           : -448 мс.
Размер потока                            : 67,0 Мбайт (7%)
Аудио #2
Идентификатор                            : 189 (0xBD)-129 (0x81)
Формат                                   : AC-3
Формат/Информация                        : Audio Coding 3
Расширение режима                        : CM (complete main)
Параметр Endianness формата              : Big
Режим смешивания                         : DVD-Video
Продолжительность                        : 24 м.
Вид битрейта                             : Постоянный
Битрейт                                  : 384 Кбит/сек
Каналы                                   : 6 каналов
Расположение каналов                     : Front: L C R, Side: L R, LFE
Частота                                  : 48,0 КГц
Битовая глубина                          : 16 бит
Метод сжатия                             : С потерями
Задержка видео                           : -448 мс.
Размер потока                            : 67,0 Мбайт (7%)
Аудио #3
Идентификатор                            : 189 (0xBD)-130 (0x82)
Формат                                   : AC-3
Формат/Информация                        : Audio Coding 3
Расширение режима                        : CM (complete main)
Параметр Endianness формата              : Big
Режим смешивания                         : DVD-Video
Продолжительность                        : 24 м.
Вид битрейта                             : Постоянный
Битрейт                                  : 384 Кбит/сек
Каналы                                   : 6 каналов
Расположение каналов                     : Front: L C R, Side: L R, LFE
Частота                                  : 48,0 КГц
Битовая глубина                          : 16 бит
Метод сжатия                             : С потерями
Задержка видео                           : -448 мс.
Размер потока                            : 67,0 Мбайт (7%)
Аудио #4
Идентификатор                            : 189 (0xBD)-131 (0x83)
Формат                                   : AC-3
Формат/Информация                        : Audio Coding 3
Расширение режима                        : CM (complete main)
Параметр Endianness формата              : Big
Режим смешивания                         : DVD-Video
Продолжительность                        : 24 м.
Вид битрейта                             : Постоянный
Битрейт                                  : 384 Кбит/сек
Каналы                                   : 6 каналов
Расположение каналов                     : Front: L C R, Side: L R, LFE
Частота                                  : 48,0 КГц
Битовая глубина                          : 16 бит
Метод сжатия                             : С потерями
Задержка видео                           : -448 мс.
Размер потока                            : 67,0 Мбайт (7%)
Аудио #5
Идентификатор                            : 189 (0xBD)-132 (0x84)
Формат                                   : AC-3
Формат/Информация                        : Audio Coding 3
Профиль формата                          : Dolby Digital
Расширение режима                        : CM (complete main)
Параметр Endianness формата              : Big
Режим смешивания                         : DVD-Video
Продолжительность                        : 24 м.
Вид битрейта                             : Постоянный
Битрейт                                  : 192 Кбит/сек
Каналы                                   : 2 канала
Расположение каналов                     : Front: L R
Частота                                  : 48,0 КГц
Битовая глубина                          : 16 бит
Метод сжатия                             : С потерями
Задержка видео                           : -384 мс.
Размер потока                            : 33,5 Мбайт (3%)
Текст #1
Идентификатор                            : 189 (0xBD)-33 (0x21)
Формат                                   : RLE
Формат/Информация                        : Run-length encoding
Режим смешивания                         : DVD-Video
Продолжительность                        : 24 м.
Задержка видео                           : 480 мс.
Текст #2
Идентификатор                            : 189 (0xBD)-34 (0x22)
Формат                                   : RLE
Формат/Информация                        : Run-length encoding
Режим смешивания                         : DVD-Video
Продолжительность                        : 24 м.
Задержка видео                           : 480 мс.
Текст #3
Идентификатор                            : 189 (0xBD)-35 (0x23)
Формат                                   : RLE
Формат/Информация                        : Run-length encoding
Режим смешивания                         : DVD-Video
Продолжительность                        : 24 м.
Задержка видео                           : 480 мс.
Текст #4
Идентификатор                            : 189 (0xBD)-36 (0x24)
Формат                                   : RLE
Формат/Информация                        : Run-length encoding
Режим смешивания                         : DVD-Video
Продолжительность                        : 24 м.
Задержка видео                           : 480 мс.
Текст #5
Идентификатор                            : 189 (0xBD)-37 (0x25)
Формат                                   : RLE
Формат/Информация                        : Run-length encoding
Режим смешивания                         : DVD-Video
Продолжительность                        : 24 м.
Задержка видео                           : 480 мс.
Текст #6
Идентификатор                            : 189 (0xBD)-38 (0x26)
Формат                                   : RLE
Формат/Информация                        : Run-length encoding
Режим смешивания                         : DVD-Video
Продолжительность                        : 24 м.
Задержка видео                           : 480 мс.
Текст #7
Идентификатор                            : 189 (0xBD)-39 (0x27)
Формат                                   : RLE
Формат/Информация                        : Run-length encoding
Режим смешивания                         : DVD-Video
Продолжительность                        : 24 м.
Задержка видео                           : 1 с. 800 мс.
Текст #8
Идентификатор                            : 189 (0xBD)-32 (0x20)
Формат                                   : RLE
Формат/Информация                        : Run-length encoding
Режим смешивания                         : DVD-Video
Меню

Скриншоты:

-
Яндекс.Метрика
Рейтинг@Mail.ru