Фото за час / One Hour Photo (Марк Романек / Mark Romanek) [2002 г., триллер, драма, BDRip] MVO

 

Создавать темы 24-Авг-2014 03:32

-Фото за час / One Hour Photo- Производство: США, Fox Searchlight Pictures, Catch 23 Entertainment, Killer Films
Год выпуска: 2002 г.
Жанр: триллер, драма
Продолжительность: 01:36:01
Мировая премьера: 13 января 2002
Дата выхода DVD: 17 июня 2010, «Флагман-Трейд»
Перевод: Профессиональный (многоголосый, закадровый) [R5]-Режиссер: Марк Романек / Mark Romanek
В ролях: Робин Уильямс, Конни Нильсен, Майкл Вартан, Дилан Смит, Эрин Дэниелс, Пол Х. Ким, Ли Гарлингтон, Гэри Коул ,Мэрион Кэлверт, Дэвид Морлэнд-Описание: Сай Перриш — одинокий пожилой начальник фотолаборатории. В его жизни нет ничего, кроме работы. Единственная отрада в жизни Сая — семья Йоркин.
Проявляя для них фотографии на протяжении многих лет, Сай привязывается к этой семье, и в особенности к маленькому Джейкобу. Но привязанность эта заходит слишком далеко…- -Качество видео: BDRip
Контейнер: AVI
Видео кодек: XviD
Аудио кодек: AC3
Видео: 704x384 (1.83:1), 23.976 fps, XviD build 65 ~1706 kbps avg, 0.26 bit/pixel
Аудио: 48 kHz, AC3 Dolby Digital, 3/2 (L,C,R,l,r) + LFE ch, ~448 kbps
Cубтитры: отсутствуют

Media Info

General
Complete name : D:\Foto.za.chas.2002.RUS.BDRip.XviD.AC3.avi
Format : AVI
Format/Info : Audio Video Interleave
File size : 1.45 GiB
Duration : 1h 36mn
Overall bit rate : 2 164 Kbps
Writing application : VirtualDubMod 1.5.10.2 (build 2540/release)
Comment : 14.08.2014
Video
ID : 0
Format : MPEG-4 Visual
Format profile : Advanced [email protected]
Format settings, BVOP : 1
Format settings, QPel : No
Format settings, GMC : No warppoints
Format settings, Matrix : Custom
Codec ID : XVID
Codec ID/Hint : XviD
Duration : 1h 36mn
Bit rate : 1 707 Kbps
Width : 704 pixels
Height : 384 pixels
Display aspect ratio : 1.85:1
Frame rate : 23.976 fps
Color space : YUV
Chroma subsampling : 4:2:0
Bit depth : 8 bits
Scan type : Progressive
Compression mode : Lossy
Bits/(Pixel*Frame) : 0.263
Stream size : 1.14 GiB (79%)
Writing library : XviD 65
Audio
ID : 1
Format : AC-3
Format/Info : Audio Coding 3
Mode extension : CM (complete main)
Format settings, Endianness : Big
Codec ID : 2000
Duration : 1h 36mn
Bit rate mode : Constant
Bit rate : 448 Kbps
Channel(s) : 6 channels
Channel positions : Front: L C R, Side: L R, LFE
Sampling rate : 48.0 KHz
Bit depth : 16 bits
Compression mode : Lossy
Stream size : 308 MiB (21%)
Alignment : Split accross interleaves
Interleave, duration : 42 ms (1.00 video frame)
Interleave, preload duration : 500 ms

Скриншоты

Яндекс.Метрика
Рейтинг@Mail.ru