[ Сегодня на трекере фрилич! Идет свободное скачивание без начисления Download ]

Новые приключения старой Кристин / The New Adventures of Old Christine (2008-2009) DVDRip (сезон 4, серии 1-22 из 22) ViruseProject

 

Создавать темы 23-Авг-2014 02:19

-Новые приключения старой Кристин / The New Adventures of Old Christine (2008-2009) DVDRip (сезон 4, серии 1-22 из 22) ViruseProject- Год выпуска: 2008-2009
Жанр: Комедия
Страна: США
Перевод: Многоголосый закадровый, профессиональный ViruseProject
Закадровое озвучание: Марина Видякина, Елена Емельянова, Алексей Кизуб
Автор перевода: hvblack, TaniaBudapest
Сведение звука, монтаж: viruse (Виталий Емельянов)
Озвучено при поддержке SEASONVAR
Режиссер: Энди Экерман
Актеры: Джулия Луис-Дрейфус, Кларк Грегг, Хамиш Линклэйтер, Тревор Ганьон, Эмили Рутерферд, Трисиа О’Келли, Алекс Кэпп Хорнер, Ванда Сайкес, Лили Гофф, Марисса Бланчард и др.
Описание фильма:
Кристин — разведённая работающая мать, которая через силы превозмогала стрессы, связанные со служебными обязанностями и семьёй, пока заново не восстановила замечательные отношения со своим бывшим мужем по имени Ричард. Стресс героям и смех зрителям — гарантированы!
Продолжительность: 00:22:00
Качество видео: DVDRip
Сэмпл: Скачать
смотреть СЕМПЛ озвучки на youtube
Видеокодек: Xvid
Битрейт видео: ~1019 kbps avg
Размер кадра: 624x352 (1.77:1)
Аудиокодек: MP3, 2 ch
Битрейт аудио: ~192.00 kbps avg

MediaInfo

D:\ОЗВУЧКА\СЕРИАЛЫ\The.New.Adventures.of.Old.Christine.S04.ViruseProject\The.New.Adventures.of.Old.Christine.S04.ViruseProject\The.New.Adventures.of.Old.Christine.S04E01.ViruseProject.avi
General
Complete name : D:\ОЗВУЧКА\СЕРИАЛЫ\The.New.Adventures.of.Old.Christine.S04.ViruseProject\The.New.Adventures.of.Old.Christine.S04.ViruseProject\The.New.Adventures.of.Old.Christine.S04E01.ViruseProject.avi
Format : AVI
Format/Info : Audio Video Interleave
File size : 186 MiB
Duration : 21mn 16s
Overall bit rate : 1 221 Kbps
Writing application : VirtualDubMod 1.5.10.2 (build 2540/release)
Writing library : VirtualDubMod build 2540/release
Video #0
ID : 0
Format : MPEG-4 Visual
Format profile : Advanced [email protected]
Format settings, BVOP : 2
Format settings, QPel : No
Format settings, GMC : No warppoints
Format settings, Matrix : Default (H.263)
Codec ID : XVID
Codec ID/Hint : XviD
Duration : 21mn 16s
Bit rate : 1 020 Kbps
Width : 624 pixels
Height : 352 pixels
Display aspect ratio : 16:9
Frame rate : 23.976 fps
Color space : YUV
Chroma subsampling : 4:2:0
Bit depth : 8 bits
Scan type : Progressive
Compression mode : Lossy
Bits/(Pixel*Frame) : 0.194
Stream size : 155 MiB (83%)
Writing library : XviD 1.2.0SMP (UTC 2006-01-08)
Audio #1
ID : 1
Format : MPEG Audio
Format version : Version 1
Format profile : Layer 3
Codec ID : 55
Codec ID/Hint : MP3
Duration : 21mn 16s
Bit rate mode : Constant
Bit rate : 192 Kbps
Channel count : 2 channels
Sampling rate : 48.0 KHz
Compression mode : Lossy
Stream size : 29.2 MiB (16%)
Alignment : Split accross interleaves
Interleave, duration : 42 ms (1.00 video frame)
Interleave, preload duration : 500 ms   [/spoiler]   [spoiler="Внимание! Раздача ведётся путём добавления новых серий"]Внимание! Раздача ведётся путём добавления новых серий; при каждом добавлении создаётся новый торрент.
Чтобы начать докачку новой серии, пользователям необходимо сделать следующее:
1. Остановить скачивание;
2. Удалить старый торрент у себя из клиента (старые серии удалять не надо);
3. Скачать новый торрент и запустить его у себя в клиенте вместо старого, при этом указать клиенту путь в старую папку куда и должно происходить скачивание новых серий. Ваш клиент при этом должен произвести хеширование (проверку) старой папки и будет докачивать только те серии, которых у вас ещё нет. Старые серии при этом не удаляются, а продолжают раздаваться! Eсли вы уже удалили старые серии, то предотвратить повторную закачку старых серий можно, отжав галочку в соответствующих местах при запуске нового торрента.

Скриншоты:

Яндекс.Метрика
Рейтинг@Mail.ru