[ Сегодня на трекере фрилич! Идет свободное скачивание без начисления Download ]

Катастрофа / Blue Ruin (2013) BDRemux [1080p] [AVO]

 

Создавать темы 22-Авг-2014 23:25

-Катастрофа / Blue Ruin (2013) BDRemux
«Revenge comes home»
- Год выпуска: 2013
Производство: США, Франция / Film Science, Paradise City
Жанр: Триллер
Описание фильма:
Спокойная жизнь таинственного затворника переворачивается с ног на голову, когда он возвращается туда, где провел детство, желая отомстить. Он ввязывается в жестокую борьбу, чтобы защитить свою семью…
Режиссер: Джереми Солнье / Jeremy Saulnier
Сценарий: Джереми Солнье / Jeremy Saulnier
Продюсер: Ричард Пит, Винсент Савино, Аниш Савджани
Актеры: Макон Блэр, Девин Рэтрей, Эми Харгривз, Кевин Колак, Ив Пламб, Дэвид В. Томпсон, Стэйси Рок, Сидне Андерсон, Бонни Джонсон, Эрика Смит
Язык: Русский, английский
Перевод: Одноголосый закадровый (авторский)
Озвучка / Автор перевода: Сергей Визгунов
Вид субтитров: Вшитые отключаемые
Язык субтитров: Русский, английский (full, SDH)

Дата мировой премьеры: 17 мая 2013
Рейтинг MPAA: R
Возраст: 16+
Продолжительность: 01:30:24
Качество видео: BDRemux
Видео: MPEG-4 AVC/H.264, 1920x1080, ~21693 kbps (0.508 bit/pixel), 23.976 fps
Аудио 1: DTS-HD MA 5.1, 3624 kbps, 48 kHz, 24-bit [Русский - одноголосый закадровый «С. Визгунов»]
Аудио 2: AC3 5.1, 640 kbps, 48 kHz, 16-bit [Русский - одноголосый закадровый «С. Визгунов»]
Аудио 3: DTS-HD MA 5.1, 3619 kbps, 48 kHz, 24-bit [Английский - оригинал]

Отчёт MediaInfo

Полное имя                               : D:\Катастрофа-Blue.Ruin.(2013).BDRemux.[1080p].mkv
Формат                                   : Matroska
Версия формата                           : Version 2
Размер файла                             : 18,7 Гбайт
Продолжительность                        : 1 ч. 30 м.
Режим общего битрейта                    : Переменный
Общий поток                              : 29,6 Мбит/сек
Название фильма                          : Blue Ruin (2013) / Lelya_K for NNM-Club
Дата кодирования                         : UTC 2014-08-22 16:47:38
Программа кодирования                    : mkvmerge v5.7.0 ('The Whirlwind') built on Aug  7 2012 14:11:40
Библиотека кодирования                   : libebml v1.2.3 + libmatroska v1.3.0
Attachment                               : Yes / Yes
Видео
Идентификатор                            : 1
Формат                                   : AVC
Формат/Информация                        : Advanced Video Codec
Профиль формата                          : [url=mailto:[email protected]][email protected][/url]
Параметр CABAC формата                   : Да
Параметр ReFrames формата                : 2 кадра
Идентификатор кодека                     : V_MPEG4/ISO/AVC
Продолжительность                        : 1 ч. 30 м.
Вид битрейта                             : Переменный
Битрейт                                  : 25,2 Мбит/сек
Ширина                                   : 1920 пикселей
Высота                                   : 1080 пикселей
Соотношение сторон                       : 16:9
Режим частоты кадров                     : Постоянный
Частота кадров                           : 23,976 кадра/сек
Цветовое пространство                    : YUV
Субдискретизация насыщенности            : 4:2:0
Битовая глубина                          : 8 бит
Тип развёртки                            : Прогрессивная
Бит/(Пиксели*Кадры)                      : 0.508
Размер потока                            : 15,9 Гбайт (85%)
Заголовок                                : Катастрофа-Blue.Ruin.(2013).BDRemux.[1080p]
Язык                                     : English
Default                                  : Да
Forced                                   : Нет
Аудио #1
Идентификатор                            : 2
Формат                                   : DTS
Формат/Информация                        : Digital Theater Systems
Профиль формата                          : MA / Core
Идентификатор кодека                     : A_DTS
Продолжительность                        : 1 ч. 30 м.
Вид битрейта                             : Переменный
Битрейт                                  : 1561 Кбит/сек / 1510 Кбит/сек
Каналы                                   : 6 каналов
Расположение каналов                     : Front: L C R, Side: L R, LFE
Частота                                  : 48,0 КГц
Битовая глубина                          : 24 бит
Метод сжатия                             : Без потерь / Lossy
Заголовок                                : DTS-HD MA 5.1 / 3624 kbps / AVO (С. Визгунов)
Язык                                     : Russian
Default                                  : Да
Forced                                   : Нет
Аудио #2
Идентификатор                            : 3
Формат                                   : AC-3
Формат/Информация                        : Audio Coding 3
Расширение режима                        : CM (complete main)
Параметр Endianness формата              : Big
Идентификатор кодека                     : A_AC3
Продолжительность                        : 1 ч. 30 м.
Вид битрейта                             : Постоянный
Битрейт                                  : 640 Кбит/сек
Каналы                                   : 6 каналов
Расположение каналов                     : Front: L C R, Side: L R, LFE
Частота                                  : 48,0 КГц
Битовая глубина                          : 16 бит
Метод сжатия                             : С потерями
Размер потока                            : 414 Мбайт (2%)
Заголовок                                : AC3 5.1 / 640 kbps / AVO (С. Визгунов)
Язык                                     : Russian
Default                                  : Нет
Forced                                   : Нет
Аудио #3
Идентификатор                            : 4
Формат                                   : DTS
Формат/Информация                        : Digital Theater Systems
Профиль формата                          : MA / Core
Идентификатор кодека                     : A_DTS
Продолжительность                        : 1 ч. 30 м.
Вид битрейта                             : Переменный
Битрейт                                  : 1561 Кбит/сек / 1510 Кбит/сек
Каналы                                   : 6 каналов
Расположение каналов                     : Front: L C R, Side: L R, LFE
Частота                                  : 48,0 КГц
Битовая глубина                          : 24 бит
Метод сжатия                             : Без потерь / Lossy
Заголовок                                : DTS-HD MA 5.1 / 3619 kbps / Original
Язык                                     : English
Default                                  : Нет
Forced                                   : Нет
Текст #1
Идентификатор                            : 5
Формат                                   : UTF-8
Идентификатор кодека                     : S_TEXT/UTF8
Идентификатор кодека/Информация          : UTF-8 Plain Text
Заголовок                                : Full #1
Язык                                     : Russian
Default                                  : Нет
Forced                                   : Нет
Текст #2
Идентификатор                            : 6
Формат                                   : UTF-8
Идентификатор кодека                     : S_TEXT/UTF8
Идентификатор кодека/Информация          : UTF-8 Plain Text
Заголовок                                : Full #2
Язык                                     : Russian
Default                                  : Нет
Forced                                   : Нет
Текст #3
Идентификатор                            : 7
Формат                                   : UTF-8
Идентификатор кодека                     : S_TEXT/UTF8
Идентификатор кодека/Информация          : UTF-8 Plain Text
Заголовок                                : Full
Язык                                     : English
Default                                  : Нет
Forced                                   : Нет
Текст #4
Идентификатор                            : 8
Формат                                   : UTF-8
Идентификатор кодека                     : S_TEXT/UTF8
Идентификатор кодека/Информация          : UTF-8 Plain Text
Заголовок                                : SDH
Язык                                     : English
Default                                  : Нет
Forced                                   : Нет
Меню
00:00:00.000                             : en:Chapter 1
00:04:17.256                             : en:Chapter 2
00:09:38.368                             : en:Chapter 3
00:16:02.419                             : en:Chapter 4
00:23:38.375                             : en:Chapter 5
00:32:14.766                             : en:Chapter 6
00:40:52.533                             : en:Chapter 7
00:47:29.263                             : en:Chapter 8
00:55:07.262                             : en:Chapter 9
01:03:16.834                             : en:Chapter 10
01:08:04.371                             : en:Chapter 11
01:13:17.684                             : en:Chapter 12
01:18:36.378                             : en:Chapter 13
01:26:04.158                             : en:Chapter 14

Скриншоты:

Яндекс.Метрика
Рейтинг@Mail.ru