[ Сегодня на трекере фрилич! Идет свободное скачивание без начисления Download ]

Ведьмы Ист-Энда / Witches of East End (Сезон 2, Серии: 5 из 10 серий) (Джон Скотт / John Scott, ...) [2013 г., фэнтези, драма, ..., WEB-DLRip] MVO (LostFilm) [обновляемая]

 

Создавать темы 13-Авг-2014 21:43

Ведьмы Ист-Энда
Witches of East End
- Русское название: Ведьмы Ист-Энда
Оригинальное название: Witches of East End
Страна: США
Год выпуска: 2013
Жанр: фэнтези, драма, ...-Озвучка: Студия
Перевод: Многоголосый закадровый, профессиональный-Премьера (мир): 6 октября 2013-Режиссер: Джон Скотт / John Scott, Аллан Аркуш / Allan Arkush, Фред Гербер / Fred Gerber
В главных ролях: Джулия Ормонд, Медкен Эмик, Дженна Деван-Татум, Рейчел Бостон, Дэниэл ДиТомассо, Эрик Винтер, Джейсон Уинстон Джордж, Вирджиния Мэдсен, Тия Сиркар, Энтони Лемке ...-Описание фильма:
История о могущественной ведьме Джоанне и её двух взрослых дочерях, которым предстоит продолжить дело своей матери.-Сезон: 2
Серии: 5 из 10 серий
Продолжительность: ~ 00:43:00 мин серия-Качество видео: WEB-DLRip
Формат: AVI
Видеокодек: XviD
Аудиокодек: Mp3
Видео: MPEG-4 Visual at 1475 Кбит/сек, 720 x 400 (1.800) at 23.976 fps, 0.12 Бит/Пиксели
Аудио Rus: MPEG Audio at 192 Кбит/сек: 2 канала, 48,0 КГц |LostFilm|
- -

Список серий:

  • Неуловимый зверь (A Moveable Beast)
  • Возвращение блудного сына (The Son Also Rises)
  • Старик и ключ (The Old Man and the Key)
  • Гримуар братьев (The Brothers Grimoire)
  • Ужасный рыцарь (Boogie Knight)
-

MediaInfo:

General
Complete name                            : E:\_Сериалы\_Сериалы\Ведьмы Ист-Энда\Witches.of.East.End.S02.LostFilm\Witches.of.East.End.S02E01.rus.LostFilm.TV.avi
Format                                   : AVI
Format/Info                              : Audio Video Interleave
File size                                : 313 MiB
Duration                                 : 43mn 40s
Overall bit rate mode                    : Variable
Overall bit rate                         : 1 001 Kbps
Writing application                      : Nandub v1.0rc2
Writing library                          : Nandub build 1853/release
Video
ID                                       : 0
Format                                   : MPEG-4 Visual
Format profile                           : Advanced [email protected]
Format settings, BVOP                    : No
Format settings, QPel                    : No
Format settings, GMC                     : No warppoints
Format settings, Matrix                  : Default (H.263)
Codec ID                                 : XVID
Codec ID/Hint                            : XviD
Duration                                 : 43mn 40s
Bit rate                                 : 800 Kbps
Width                                    : 720 pixels
Height                                   : 400 pixels
Display aspect ratio                     : 16:9
Frame rate                               : 23.976 fps
Color space                              : YUV
Chroma subsampling                       : 4:2:0
Bit depth                                : 8 bits
Scan type                                : Progressive
Compression mode                         : Lossy
Bits/(Pixel*Frame)                       : 0.116
Stream size                              : 250 MiB (80%)
Writing library                          : XviD 1.2.1 (UTC 2008-12-04)
Audio
ID                                       : 1
Format                                   : MPEG Audio
Format version                           : Version 1
Format profile                           : Layer 3
Mode                                     : Joint stereo
Mode extension                           : MS Stereo
Codec ID                                 : 55
Codec ID/Hint                            : MP3
Duration                                 : 43mn 40s
Bit rate mode                            : Variable
Bit rate                                 : 192 Kbps
Channel(s)                               : 2 channels
Sampling rate                            : 48.0 KHz
Compression mode                         : Lossy
Stream size                              : 58.8 MiB (19%)
Alignment                                : Aligned on interleaves
Interleave, duration                     : 24 ms (0.58 video frame)
Interleave, preload duration             : 489 ms
Writing library                          : LAME3.97b
Encoding settings                        : -m j -V 4 -q 3 -lowpass 18.6 --abr 192
-

Скриншот c названием фильма

-Скриншоты:
-

Еще

-

Внимание! Раздача ведётся путём добавления новых серий!

Раздача ведётся путём добавления новых серий; при каждом добавлении создётся новый торрент.
Чтобы начать докачку новой серии, пользователям необходимо сделать следующее:
1. остановить скачивание,
2. удалить старый торрент у себя из клиента (старые серии удалять не надо),
3. скачать новый торрент и запустить его у себя в клиенте вместо старого, при этом указать клиенту путь в старую папку, куда и должно происходить скачивание новых серий.
Ваш клиент при этом должен произвести хеширование (проверку) старой папки (если не производит сам - помогите ему сделать это), и будет докачивать только те серии которых у вас ещё нет. Старые серии при этом не удаляются, а продолжают раздаваться!
Eсли вы уже удалили старые серии, то предотвратить повторную закачку старых серий можно, отжав галочку в соответсвующих местах при запуске нового торрента. По возможности, желательно не удалять старые серии как можно дольше, чтобы релизёр не столько продолжал раздавать старые серии, а смог сконцентрироваться на новых.
Совет для тех, кто не хочет ждать перехеширования:
Создайте ещё одну папку рядом с папкой сериала (рядом, а не в ней!!!). Каждую новую серию после удачной загрузки копируйте в новую папку так чтобы ваша основная папка всегда была пуста. Когда ваш новый торрент предложит вам закачать все файлы, выберете только последнюю. Для сидирования же укажите адрес новой папки.
Как закачать отдельный файл из торрента или докачать ранее пропущенные файлы торрента!
-

Как закачать отдельный файл

1. Открыть торрент
2. Снять галки с тех файлов торрента, которые мы не хотим закачивать. Оставляем только на нужных нам файлах (файле).
3. Нажать О.К.
В клиенте utorrent
Инструкция
1) Открыть торрент

2) Снять галки с тех файлов торрента, которые мы не хотим закачивать:
* либо вручную, снимая с каждого файла галку( скрин №1)
* либо, нажав кнопку "Снять метки (Select None)", сняв сразу со всех файлов(скрин №2)
№1

№2

Оставляем только на нужных нам файлах (файле).

3)Нажать О.К
-Добавлена пятая серия второго сезона
Четвертая заменена на исправленную
Работаю за
Яндекс.Метрика
Рейтинг@Mail.ru