[ Сегодня на трекере фрилич! Идет свободное скачивание без начисления Download ]

Операция «Мертвый снег» 2 / Død Snø 2 (Томми Виркола / Tommy Wirkola) [2014 г., Ужасы, боевик, комедия, HDRip] MVO [Лицензия]

 

Создавать темы 09-Авг-2014 21:19

-Операция «Мертвый снег» 2 / Død Snø 2-- Производство: Норвегия, Исландия, Tappeluft Pictures, Saga Film, XYZ Films
Год выпуска: 2014 г.
Жанр: Ужасы, боевик, комедия
Продолжительность: 01:40:42
Мировая премьера: 19 января 2014
Дата выхода DVD: 14 августа 2014, «CP Дистрибуция», .
Перевод: Профессиональный (многоголосый, закадровый) [Лицензия]
Режиссер: Томми Виркола / Tommy Wirkola-В ролях: Амрита Ачария, Carl-Magnus Adner, Жослин Де, Лофи Эльясдоттир, Кристиан Фидженшоу, Шарлотта Фрогнер, Орхан Гамст, Ингар Хельге Гимле, Tage Guddingsmo, Томас Торхаллур Гудмундсон-Описание: После встречи в горах с нацистами-зомби лишь Мартину удалось добраться до цивилизации, в то время как все его приятели погибли. Однако парень забыл о маленьком подарке, который он получил от своей возлюбленной Ханны, — золотой монете, которую та нашла в старом доме. Эта монета — часть клада, который подчиненные штандартенфюрера Герцога собирали для своего фюрера. Но даже после смерти немцы не намерены никому отдавать свои сокровища…-
Качество видео: HDRip
Контейнер: AVI
Видео кодек: XviD
Аудио кодек: AC3
Видео: 720x304 (2.35:1), XViD 1613 Кбит/сек / 25.000 fps / Бит/(Пиксели*Кадры) : 0.307
Аудио: 48 kHz, AC3 Dolby Digital, 3/2 (L,C,R,l,r) + LFE ch, ~448 kbps
Cубтитры: отсутствуют

Media Info

Общее
Полное имя : W:\Operatsiya.Mertviy.Sneg.2.2014.P.HDRip.1.46GB.avi
Формат : AVI
Формат/Информация : Audio Video Interleave
Размер файла : 1,46 Гбайт
Продолжительность : 1 ч. 40 м.
Общий поток : 2071 Кбит/сек
Программа кодирования : VirtualDubMod 1.5.10.2 (build 2540/release)
Библиотека кодирования : VirtualDubMod build 2540/release
Видео
Идентификатор : 0
Формат : MPEG-4 Visual
Профиль формата : Advanced [email protected]
Параметр BVOP формата : 1
Параметр QPel формата : Нет
Параметр GMC формата : Без точки перехода
Параметр матрицы формата : Выборочная
Идентификатор кодека : XVID
Идентификатор кодека/Подсказка : XviD
Продолжительность : 1 ч. 40 м.
Битрейт : 1613 Кбит/сек
Ширина : 720 пикс.
Высота : 304 пикс.
Соотношение сторон : 2,35:1
Частота кадров : 24,000 кадр/сек
Цветовое пространство : YUV
Подвыборка цветности : 4:2:0
Битовая глубина : 8 бит
Тип развёртки : Прогрессивная
Метод сжатия : С потерями
Бит/(Пиксели*Кадры) : 0.307
Размер потока : 1,13 Гбайт (78%)
Библиотека кодирования : XviD 1.2.1 (UTC 2008-12-04)
Аудио
Идентификатор : 1
Формат : AC-3
Формат/Информация : Audio Coding 3
Расширение режима : CM (complete main)
Идентификатор кодека : 2000
Продолжительность : 1 ч. 40 м.
Вид битрейта : Постоянный
Битрейт : 448 Кбит/сек
Канал(ы) : 6 канала(ов)
Расположение каналов : Front: L C R, Side: L R, LFE
Частота : 48,0 КГц
Битовая глубина : 16 бит
Метод сжатия : С потерями
Размер потока : 323 Мбайт (22%)
Выравнивание : Разделение по промежуткам
Продолжительность промежутка : 42 мс. (1,00 видеокадр)
Время предзагрузки промежутка : 500 ms

Скриншоты

Яндекс.Метрика
Рейтинг@Mail.ru