Ад на колёсах / Hell on Wheels (Сезон 1 / Полный / Серии: 10 из 10) (Дэвид Фон Энкен / David Von Ancken, ...) [2014 г., Драма, Вестерн, ..., WEB-DLRip] MVO (Lostfilm)

 

Создавать темы 08-Авг-2014 14:05

Ад на колёсах / Hell on Wheels
«Blood will be spilled. Lives will be lost. Men will be ruined.»
- Русское название: Ад на колёсах
Оригинальное название: Hell on Wheels
Страна: Канада, Великобритания
Год выпуска: 2014
Жанр: Драма, Вестерн-Премьера (мир): 6 ноября 2011, ...
Премьера (РФ): 25 ноября 2013-Озвучка: Студия
Перевод: Многоголосый закадровый, профессиональный-Режиссер: Дэвид Фон Энкен / David Von Ancken, Адам Дэвидсон / Adam Davidson, Род Лури / Rod Lurie ...
Актеры: Энсон Маунт, Колм Мини, Коммон, Доминик МакЭллигот, Том Нунен, Эдди Спирс, Кристофер Хейердал, Робин МакЛиви, Каша Кропински, Бен Эслер ...-Описание фильма:
Городок Шайенн окончательно погряз в грехе. Маленький филиал ада уже свел в могилу немало людей. Понятия морали и чести тут не действуют, законы трактуются лишь в пользу сильных и влиятельных граждан, а о какой-либо культуре не идет речи и вовсе. «В аду нет цивилизации» - гласит слоган четвертого сезона шоу. Это значит, что главному герою, Каллену Бохэннану, еще не раз предстоит пустить в ход своей револьвер. Здесь выживают лишь отчаянные борцы за собственную судьбу - остальных ждет петля да милосердная пуля.-Сезон: 1
Серии: 10 из 10 серий
Продолжительность: ~ 45:00 мин серия-Качество видео: WEB-DLRip
Формат: AVI
Видеокодек: XviD
Аудиокодек: Mp3
Видео: MPEG-4 Visual at 1915 Кбит/сек: 720 x 400 (1.800) at 23.976 fps: 0.28 Бит/Пиксели
Аудио: MPEG Audio at 128 Кбит/сек: 2 канала, 48,0 КГц
- -

Список серий:

  • Пилотная серия / Pilot
  • Аморальная математика / Immoral Mathematics
  • Рождение новой свободы / A New Birth of Freedom
  • Никогда не забуду / Jamais Je Ne T'oublierai
  • Хлеба и зрелищ / Bread and Circuses
  • Гордость, помпа и обстоятельство / Pride, Pomp and Circumstance
  • Откровение / Revelations
  • Под откос / Derailed
  • Ты можешь / Timshel
  • Бог Хаоса / God of Chaos
-

MediaInfo:

Общее
Полное имя                               : E:\_Сериалы\_Сериалы\Ад на колесах\Hell.on.Wheels.s01.LostFilm\Hell.on.Wheels.S01E01.rus.LostFilm.TV.avi
Формат                                   : AVI
Формат/Информация                        : Audio Video Interleave
Размер файла                             : 664 Мбайт
Продолжительность                        : 45 м.
Общий поток                              : 2056 Кбит/сек
Программа кодирования                    : Nandub v1.0rc2
Библиотека кодирования                   : Nandub build 1853/release
Видео
Идентификатор                            : 0
Формат                                   : MPEG-4 Visual
Профиль формата                          : [email protected]
Параметр BVOP формата                    : Нет
Параметр QPel формата                    : Нет
Параметр GMC формата                     : Без точки перехода
Параметр матрицы формата                 : Default (H.263)
Идентификатор кодека                     : XVID
Идентификатор кодека/Подсказка           : XviD
Продолжительность                        : 45 м.
Битрейт                                  : 1915 Кбит/сек
Ширина                                   : 720 пикселей
Высота                                   : 400 пикселей
Соотношение сторон                       : 16:9
Частота кадров                           : 23,976 кадра/сек
Цветовое пространство                    : YUV
Субдискретизация насыщенности            : 4:2:0
Битовая глубина                          : 8 бит
Тип развёртки                            : Прогрессивная
Метод сжатия                             : С потерями
Бит/(Пиксели*Кадры)                      : 0.277
Размер потока                            : 619 Мбайт (93%)
Библиотека кодирования                   : XviD 1.2.1 (UTC 2008-12-04)
Аудио
Идентификатор                            : 1
Формат                                   : MPEG Audio
Версия формата                           : Version 1
Профиль формата                          : Layer 3
Режим                                    : Joint stereo
Расширение режима                        : MS Stereo
Идентификатор кодека                     : 55
Идентификатор кодека/Подсказка           : MP3
Продолжительность                        : 45 м.
Вид битрейта                             : Постоянный
Битрейт                                  : 128 Кбит/сек
Каналы                                   : 2 канала
Частота                                  : 48,0 КГц
Метод сжатия                             : С потерями
Размер потока                            : 41,4 Мбайт (6%)
Выравнивание                             : Соединение по промежуткам
Продолжительность промежутка             : 24  мс. (0,58 видеокадр)
Время предзагрузки промежутка            : 480  мс.
-

Скриншот c названием фильма

-Скриншоты:
-

Еще

-

Как закачать отдельный файл

1. Открыть торрент
2. Снять галки с тех файлов торрента, которые мы не хотим закачивать. Оставляем только на нужных нам файлах (файле).
3. Нажать О.К.
В клиенте utorrent
Инструкция
1) Открыть торрент

2) Снять галки с тех файлов торрента, которые мы не хотим закачивать:
* либо вручную, снимая с каждого файла галку( скрин №1)
* либо, нажав кнопку "Снять метки (Select None)", сняв сразу со всех файлов(скрин №2)
№1

№2

Оставляем только на нужных нам файлах (файле).

3)Нажать О.К
-Первый сезон, полностью
Яндекс.Метрика
Рейтинг@Mail.ru