Страшилы / The Frighteners (Питер Джексон / Peter Jackson) [1996 г., Мистика/Комедия/Ужасы, BDRip, 720p] [Театральная версия] AVO (Визгунов, Гаврилов) + MVO + original (Eng)

 

Создавать темы 05-Авг-2014 02:11

Страшилы / The Frighteners (Театральная версия)
Год выпуска: 1996
Производство: США
Жанр: Мистика/Комедия/Ужасы
Продолжительность: 1:49:43
Перевод: Авторский (одноголосый, закадровый) Визгунов, Гаврилов
Перевод 2: Профессиональный (многоголосый, закадровый) - Премьер (с BD CEE)
Оригинальный аудиопоток: английский
Режиссер: Питер Джексон / Peter Jackson
В ролях: Майкл Джей Фокс /Michael J. Fox/, Трини Альварадо /Trini Alvarado/, Питер Добсон /Peter Dobson/, Джон Эстин /John Astin/, Джеффри Комбс /Jeffrey Combs/, Джек Уоллес /Jack Wallace/, Джейк Бьюзи /Jake Busey/, Чи МакБрайд /Chi McBride/, Джим Файфи /Jim Fyfe/, Трой Эванс /Troy Evans/, Джулианна МакКарти /Julianna McCarthy/, Р. Ли Эрми /R. Lee Ermey/, Элизабет Хоторн /Elizabeth Hawthorne/
Описание: Сделанная в ключе таких фильмов, как "Битлджюс", "Охотники за привидениями", "Призрак" и "Назад в будущее", эта сверкающая талантом и легким гением картина, вобрав в себя все лучшее, поднялась еще на одну ступень развлекательного кино, что стало возможно, благодаря развитию техники спецэффектов. Экстрасенс (Фокс), зарабатывющий на жизнь в компании дружелюбных привидений, посылая их в дома, а затем за скромное вознаграждение успешно изгоняя "польтергейст", сталкивается со страшным противником - вернувшимся с того света, а вернее, задержавшимся на этом после казни, маньяком-убийцей. Вместе с женщиной-врачом, муж которой был убит этим олицетворением зла, Фокс загоняет гадину в ад вместе с его напарницей по преступлениям. Уверен, что ленту ждет огромный и долгий коммерческий успех, ибо она того заслуживает. (c) Иванов М.
Качество видео: BDRip
Контейнер: MKV
Стандарт разрешения: 720p
Видео кодек: H.264
Аудио кодек: AC3
Видео: 5100 Kbps, 1280*544 pixels, 2.35:1, 23.976 fps
Аудио : AC3, 192 Kbps, 2 channels, 48.0 KHz, 16 bits - Визгунов
Аудио #2: AC3, 256 Kbps, 2 channels, 48.0 KHz, 16 bits - Гаврилов
Аудио #3: AC3, 192 Kbps, 2 channels, 48.0 KHz, 16 bits - MVO
Аудио #4: AC3, 192 Kbps, 2 channels, 48.0 KHz, 16 bits - eng

Доп. информация

Дорога с Визгуновым с рипа _int_а.
Гаврилов оцифрован с моей vhs(на пишущий dvd).Перевод не такой как на режиссерской версии.

Media Info

C:\Users\LEHA\Desktop\Страшилы.1996.BDRip720p.mkv
General
Unique ID : 239692833543177307367960228570571996204 (0xB453291A4D404DCFB94E2A51BF5BFC2C)
Complete name : C:\Users\LEHA\Desktop\Страшилы.1996.BDRip720p.mkv
Format : Matroska
Format version : Version 2
File size : 4.54 GiB
Duration : 1h 49mn
Overall bit rate : 5 921 Kbps
Encoded date : UTC 2014-08-03 18:38:29
Writing application : mkvmerge v5.8.0 ('No Sleep / Pillow') built on Sep 2 2012 15:37:04
Writing library : libebml v1.2.3 + libmatroska v1.3.0
Video #1
ID : 1
Format : AVC
Format/Info : Advanced Video Codec
Format profile : [email protected]
Format settings, CABAC : Yes
Format settings, ReFrames : 12 frames
Muxing mode : Header stripping
Codec ID : V_MPEG4/ISO/AVC
Duration : 1h 49mn
Bit rate : 5 100 Kbps
Width : 1 280 pixels
Height : 544 pixels
Display aspect ratio : 2.35:1
Frame rate : 23.976 fps
Color space : YUV
Chroma subsampling : 4:2:0
Bit depth : 8 bits
Scan type : Progressive
Bits/(Pixel*Frame) : 0.305
Stream size : 3.81 GiB (84%)
Writing library : x264 core 125 r2208 d9d2288
Encoding settings : cabac=1 / ref=12 / deblock=1:-1:-1 / analyse=0x3:0x133 / me=umh / subme=11 / psy=1 / psy_rd=1.00:0.15 / mixed_ref=1 / me_range=32 / chroma_me=1 / trellis=2 / 8x8dct=1 / cqm=0 / deadzone=21,11 / fast_pskip=1 / chroma_qp_offset=-3 / threads=12 / lookahead_threads=2 / sliced_threads=0 / nr=0 / decimate=1 / interlaced=0 / bluray_compat=0 / constrained_intra=0 / bframes=8 / b_pyramid=2 / b_adapt=2 / b_bias=0 / direct=3 / weightb=1 / open_gop=0 / weightp=2 / keyint=250 / keyint_min=23 / scenecut=40 / intra_refresh=0 / rc_lookahead=60 / rc=2pass / mbtree=1 / bitrate=5100 / ratetol=1.0 / qcomp=0.60 / qpmin=0 / qpmax=69 / qpstep=4 / cplxblur=20.0 / qblur=0.5 / ip_ratio=1.40 / aq=1:1.00
Audio #2
ID : 2
Format : AC-3
Format/Info : Audio Coding 3
Mode extension : CM (complete main)
Muxing mode : Header stripping
Codec ID : A_AC3
Duration : 1h 49mn
Bit rate mode : Constant
Bit rate : 192 Kbps
Channel(s) : 2 channels
Channel positions : Front: L R
Sampling rate : 48.0 KHz
Bit depth : 16 bits
Compression mode : Lossy
Stream size : 151 MiB (3%)
Title : Визгунов
Audio #3
ID : 3
Format : AC-3
Format/Info : Audio Coding 3
Mode extension : CM (complete main)
Muxing mode : Header stripping
Codec ID : A_AC3
Duration : 1h 49mn
Bit rate mode : Constant
Bit rate : 256 Kbps
Channel(s) : 2 channels
Channel positions : Front: L R
Sampling rate : 48.0 KHz
Bit depth : 16 bits
Compression mode : Lossy
Stream size : 201 MiB (4%)
Title : Гаврилов
Audio #4
ID : 4
Format : AC-3
Format/Info : Audio Coding 3
Mode extension : CM (complete main)
Muxing mode : Header stripping
Codec ID : A_AC3
Duration : 1h 49mn
Bit rate mode : Constant
Bit rate : 192 Kbps
Channel(s) : 2 channels
Channel positions : Front: L R
Sampling rate : 48.0 KHz
Bit depth : 16 bits
Compression mode : Lossy
Stream size : 151 MiB (3%)
Title : mvo
Audio #5
ID : 5
Format : AC-3
Format/Info : Audio Coding 3
Mode extension : CM (complete main)
Muxing mode : Header stripping
Codec ID : A_AC3
Duration : 1h 49mn
Bit rate mode : Constant
Bit rate : 192 Kbps
Channel(s) : 2 channels
Channel positions : Front: L R
Sampling rate : 48.0 KHz
Bit depth : 16 bits
Compression mode : Lossy
Stream size : 151 MiB (3%)
Title : eng

log x.264

x264 [info]: frame I:1188  Avg QP:16.96  size:114893
x264 [info]: frame P:35457 Avg QP:19.77 size: 43135
x264 [info]: frame B:121260 Avg QP:21.35 size: 20860

Скриншоты

Яндекс.Метрика
Рейтинг@Mail.ru