Паркер / Parker (Тейлор Хэкфорд / Taylor Hackford) [2013, США, боевик, триллер, криминал, BDRip-AVC] VO (kyberpunk) + Original Eng

 

Создавать темы 04-Авг-2014 20:43

Паркер / Parker
Страна: США
Жанр: боевик, триллер, криминал
Год выпуска: 2013
Продолжительность: 01:58:40
Перевод: Одноголосый закадровый Михаил Яроцкий (kyberpunk) (ненормативная лексика)
Cубтитры: нет
Оригинальная аудиодорожка: английский-Режиссер: Тейлор Хэкфорд / Taylor Hackford
В ролях: Джейсон Стэйтем, Дженнифер Лопез, Майкл Чиклис, Ник Нолти, Эмма Бут, Майка А. Хауптмен, Уенделл Пирс, Клифтон Коллинз мл., Дэниэл Бернхард, Бобби Каннавале
Описание: Паркер - профессиональный вор со своим кодексом чести а-ля современный Робин Гуд. После очередного относительно удачного ограбления главного героя начиняют свинцом вероломные напарники и выбрасывают его, истекающего кровью, на обочину дороги. Но, благодаря удачному стечению обстоятельств (а еще, наверное, потому, что Паркера играет Джейсон Стэтхэм), Паркер выживает, и сейчас им движет благородное чувство мести и желание вернуть свою долю, а также доказать, что с честным вором шутки плохи.-
Рейтинг R - Детям до 17 лет обязательно присутствие родителей!-Доп.информация: перевод доступен, благодаря mihey10 (+ сборка дорожки), MrRose, будулайроманов, Hannabar, farivan, kidman644, rikkibobbi, dikii. Работа со звуком - Perevodman. Рип - mihaildns.
-Качество видео: BDRip-AVC (Blu-ray Disc 1080p / Кинозал)
Формат видео: MKV
Видео: 1042x432 (2.40:1), 1740 Kbps, 23.976 fps, AVC (x264), [email protected], 0.161 bit/pixel
Аудио 1: 48 kHz, AC3 Dolby Digital, 3/2 (L,C,R) + L R, LFE ch, 448 kbps
Аудио 2: 48 kHz, AC3 Dolby Digital, 3/2 (L,C,R) + L R, LFE ch, 448 kbps

MediaInfo

General
Unique ID : 243962635888864624777208396219374888294 (0xB7897E9C992A4B28AE2129EC78E3E566)
Complete name : F:\VIDEO\Мои переводы\52. Parker.(2013).BDRip-AVC.kyberpunk.mkv
Format : Matroska
Format version : Version 1
File size : 2.19 GiB
Duration : 1h 58mn
Overall bit rate : 2 639 Kbps
Movie name : Паркер-Parker.(2013).BDRip
Encoded date : UTC 2013-06-17 09:06:05
Writing application : mkvmerge v2.1.0 ('Another Place To Fall') built on Aug 19 2007 13:40:07
Writing library : libebml v0.7.7 + libmatroska v0.8.1
Video
ID : 1
Format : AVC
Format/Info : Advanced Video Codec
Format profile : [email protected]
Format settings, CABAC : Yes
Format settings, ReFrames : 10 frames
Codec ID : V_MPEG4/ISO/AVC
Duration : 1h 58mn
Bit rate : 1 740 Kbps
Width : 1 042 pixels
Height : 432 pixels
Display aspect ratio : 2.40:1
Frame rate mode : Constant
Frame rate : 23.976 fps
Color space : YUV
Chroma subsampling : 4:2:0
Bit depth : 8 bits
Scan type : Progressive
Bits/(Pixel*Frame) : 0.161
Stream size : 1.40 GiB (64%)
Writing library : x264 core 130 r2273 b3065e6
Encoding settings : cabac=1 / ref=10 / deblock=1:-2:-1 / analyse=0x3:0x133 / me=umh / subme=10 / psy=1 / psy_rd=0.95:0.05 / mixed_ref=1 / me_range=32 / chroma_me=1 / trellis=2 / 8x8dct=1 / cqm=0 / deadzone=21,11 / fast_pskip=0 / chroma_qp_offset=-4 / threads=6 / lookahead_threads=1 / sliced_threads=0 / nr=0 / decimate=1 / interlaced=0 / bluray_compat=0 / constrained_intra=0 / bframes=9 / b_pyramid=2 / b_adapt=2 / b_bias=0 / direct=3 / weightb=1 / open_gop=0 / weightp=2 / keyint=230 / keyint_min=21 / scenecut=40 / intra_refresh=0 / rc_lookahead=0 / rc=2pass / mbtree=0 / bitrate=1740 / ratetol=1.0 / qcomp=0.70 / qpmin=0 / qpmax=69 / qpstep=4 / cplxblur=20.0 / qblur=0.5 / vbv_maxrate=50000 / vbv_bufsize=62500 / nal_hrd=none / ip_ratio=1.35 / pb_ratio=1.25 / aq=2:0.90
Language : English
Default : Yes
Forced : No
Audio #1
ID : 2
Format : AC-3
Format/Info : Audio Coding 3
Mode extension : CM (complete main)
Format settings, Endianness : Big
Codec ID : A_AC3
Duration : 1h 58mn
Bit rate mode : Constant
Bit rate : 448 Kbps
Channel(s) : 6 channels
Channel positions : Front: L C R, Side: L R, LFE
Sampling rate : 48.0 KHz
Bit depth : 16 bits
Compression mode : Lossy
Stream size : 380 MiB (17%)
Title : Михаил Яроцкий
Language : Russian
Default : Yes
Forced : No
Audio #2
ID : 3
Format : AC-3
Format/Info : Audio Coding 3
Mode extension : CM (complete main)
Format settings, Endianness : Big
Codec ID : A_AC3
Duration : 1h 58mn
Bit rate mode : Constant
Bit rate : 448 Kbps
Channel(s) : 6 channels
Channel positions : Front: L C R, Side: L R, LFE
Sampling rate : 48.0 KHz
Bit depth : 16 bits
Compression mode : Lossy
Stream size : 380 MiB (17%)
Language : English
Default : No
Forced : No
Menu
00:00:00.000 : en:00:00:00.000
00:06:14.708 : en:00:06:14.708
00:14:00.923 : en:00:14:00.923
00:19:29.585 : en:00:19:29.585
00:26:25.000 : en:00:26:25.000
00:31:46.488 : en:00:31:46.488
00:38:26.804 : en:00:38:26.804
00:42:27.920 : en:00:42:27.920
00:49:46.275 : en:00:49:46.275
00:55:07.638 : en:00:55:07.638
01:01:11.376 : en:01:01:11.376
01:06:21.561 : en:01:06:21.561
01:11:51.349 : en:01:11:51.349
01:22:34.533 : en:01:22:34.533
01:30:46.274 : en:01:30:46.274
01:38:12.220 : en:01:38:12.220

Скриншоты

Яндекс.Метрика
Рейтинг@Mail.ru