[ Сегодня на трекере фрилич! Идет свободное скачивание без начисления Download ]

Новый Человек-паук: Высокое напряжение / The Amazing Spider-Man 2 (Марк Уэбб / Marc Webb) [2014 г., Фэнтези, боевик, приключения, HDRip] Dub[iTunes]

 

Создавать темы 01-Авг-2014 09:06

-Новый Человек-паук: Высокое напряжение / The Amazing Spider-Man 2-- Производство: США, Marvel Enterprises, Avi Arad Productions, Columbia Pictures
Год выпуска: 2014 г.
Жанр: Фэнтези, боевик, приключения
Продолжительность: 02:16:47
Мировая премьера: 10 апреля 2014
Российская премьера: 24 апреля 2014, «WDSSPR»
Дата выхода DVD: 21 августа 2014, «CP Дистрибуция»
Дата выхода Blu-Ray: 21 августа 2014, «CP Дистрибуция»
Перевод: Профессиональный (полное дублирование) [iTunes]
Режиссер: Марк Уэбб / Marc Webb-В ролях: Эндрю Гарфилд, Эмма Стоун, Джейми Фокс, Дэйн ДеХаан, Колм Фиор, Фелисити Джонс, Пол Джаматти, Салли Филд, Эмбет Дэвидц, Кэмпбелл Скотт-Описание: Питер Паркер под маской Человека-паука по-прежнему спасает мир от злодеев и преступников, а свободное время проводит со своей возлюбленной Гвен, но школьная пора близится к концу, и впереди героев ждет взрослая жизнь. Питер помнит о том, что дал отцу Гвен слово навсегда уйти из жизни девушки, тем самым больше не подвергая ее опасности. Однако сдержать это обещание не так просто. Судьба готовит Питеру сюрпризы: на его пути появится новый противник — Электро, а также ему будет суждено вновь встретиться с давним приятелем Гарри Озборном и узнать много нового о прошлом своей семьи.-
Качество видео: HDRip
Контейнер: AVI
Видео кодек: XviD
Аудио кодек: AC3
Видео: 720x304 (2.37:1), 23.976 fps, XviD build 50 ~1083 kbps avg, 0.21 bit/pixel
Аудио: 48kHz, AC3 Dolby Digital, 6 ch, ~384 kbps
Cубтитры: отсутствуют

Media Info

Общее
Полное имя : W:\Novyi.Chelovek.Pauk.2014.D.HDRip.1400MB.avi
Формат : AVI
Формат/Информация : Audio Video Interleave
Размер файла : 1,46 Гбайт
Продолжительность : 2 ч. 21 м.
Общий поток : 1478 Кбит/сек
Программа кодирования : VirtualDubMod 1.5.10.2 (build 2540/release)
Библиотека кодирования : VirtualDubMod build 2540/release
Видео
Идентификатор : 0
Формат : MPEG-4 Visual
Профиль формата : Advanced [email protected]
Параметр BVOP формата : 2
Параметр QPel формата : Нет
Параметр GMC формата : Без точки перехода
Параметр матрицы формата : Default (MPEG)
Идентификатор кодека : XVID
Идентификатор кодека/Подсказка : XviD
Продолжительность : 2 ч. 21 м.
Битрейт : 1085 Кбит/сек
Ширина : 720 пикс.
Высота : 304 пикс.
Соотношение сторон : 2,35:1
Частота кадров : 23,976 кадр/сек
Цветовое пространство : YUV
Подвыборка цветности : 4:2:0
Битовая глубина : 8 бит
Тип развёртки : Прогрессивная
Метод сжатия : С потерями
Бит/(Пиксели*Кадры) : 0.207
Размер потока : 1,07 Гбайт (73%)
Библиотека кодирования : XviD 1.2.1 (UTC 2008-12-04)
Аудио
Идентификатор : 1
Формат : AC-3
Формат/Информация : Audio Coding 3
Расширение режима : CM (complete main)
Идентификатор кодека : 2000
Продолжительность : 2 ч. 21 м.
Вид битрейта : Постоянный
Битрейт : 384 Кбит/сек
Канал(ы) : 6 канала(ов)
Расположение каналов : Front: L C R, Side: L R, LFE
Частота : 48,0 КГц
Битовая глубина : 16 бит
Метод сжатия : С потерями
Размер потока : 389 Мбайт (26%)
Выравнивание : Разделение по промежуткам
Продолжительность промежутка : 42 мс. (1,00 видеокадр)
Время предзагрузки промежутка : 500 ms

Скриншоты

Яндекс.Метрика
Рейтинг@Mail.ru