Верь / Believe (Сезон 1, полный, серии 13 из 13) (Альфонсо Куарон / Alfonso Cuarón) [2014г., фэнтези, драма, WEB-DLRip] MVO (LostFilm)

 

Создавать темы 30-Июл-2014 03:23

Верь / Believe
«A boy's best friend is his mother.»
- Русское название: Верь
Оригинальное название: Believe
Страна: США
Год выпуска: 2014
Жанр: фэнтези, драма-Озвучка: Студия LostFilm
Перевод: Многоголосый закадровый, профессиональный-Премьера (мир): 10 марта 2014-Режиссер: Альфонсо Куарон / Alfonso Cuarón, Роксанн Доусон / Roxann Dawson, Сэм Хилл / Sam Hill, ...
В главных ролях: Джонни Секвойя, Джэйк МакЛафлин, Делрой Линдо, Кайл МакЛоклен, Сиенна Гиллори, Джейми Чунг, Ариан Моайед, Юрий Хенли-Кон, Кэти МакКлеллан, Роб Морган ...-Описание фильма:
История о необычных отношениях между юной девушкой с особым даром и сбежавшим из тюрьмы мужчиной, который защищает её от желающих воспользоваться её силой.-Сезон: 1
Серии: 13 из 13 серий
Продолжительность: ~ 00:43:00 мин серия-Качество видео: WEB-DLRip
Формат: AVI
Видеокодек: XviD
Аудиокодек: Mp3
Видео: MPEG-4 Visual at 1629 Кбит/сек: 720 x 400 (1.800) at 23.976 fps, 0.24 Бит/Пиксели
Аудио Rus: MPEG Audio at 192 Кбит/сек: 2 канала, 48,0 КГц |LostFilm|
- -

Список серий:

  • Ушла, но не забыта (Gone But Not Forgotten)
  • Новичкам везёт (Beginner's Luck)
  • Начало (Origin)
  • Отступничество (Defection)
  • Белый шум (White Noise)
  • Из глубины (Sinking)
  • Под ударом (Bang and Blame)
  • Вместе (Together)
  • Талант (Prodigy)
  • Обвал (Collapse)
  • Откровение (Revelation)
  • Второй шанс (Second Chance)
  • Восприятие (Perception)
-

MediaInfo:

Общее
Полное имя                               : E:\_Сериалы\000\Верь\Believe-1(LostFilm)\Believe.S01E01.rus.LostFilm.TV.avi
Формат                                   : AVI
Формат/Информация                        : Audio Video Interleave
Размер файла                             : 566 Мбайт
Продолжительность                        : 43 м.
Режим общего битрейта                    : Переменный
Общий поток                              : 1828 Кбит/сек
Программа кодирования                    : Nandub v1.0rc2
Библиотека кодирования                   : Nandub build 1853/release
Видео
Идентификатор                            : 0
Формат                                   : MPEG-4 Visual
Профиль формата                          : [email protected]
Параметр BVOP формата                    : Нет
Параметр QPel формата                    : Нет
Параметр GMC формата                     : Без точки перехода
Параметр матрицы формата                 : Default (H.263)
Идентификатор кодека                     : XVID
Идентификатор кодека/Подсказка           : XviD
Продолжительность                        : 43 м.
Битрейт                                  : 1629 Кбит/сек
Ширина                                   : 720 пикселей
Высота                                   : 400 пикселей
Соотношение сторон                       : 16:9
Частота кадров                           : 23,976 кадра/сек
Цветовое пространство                    : YUV
Субдискретизация насыщенности            : 4:2:0
Битовая глубина                          : 8 бит
Тип развёртки                            : Прогрессивная
Метод сжатия                             : С потерями
Бит/(Пиксели*Кадры)                      : 0.236
Размер потока                            : 504 Мбайт (89%)
Библиотека кодирования                   : XviD 1.2.1 (UTC 2008-12-04)
Аудио
Идентификатор                            : 1
Формат                                   : MPEG Audio
Версия формата                           : Version 1
Профиль формата                          : Layer 3
Режим                                    : Joint stereo
Расширение режима                        : MS Stereo
Идентификатор кодека                     : 55
Идентификатор кодека/Подсказка           : MP3
Продолжительность                        : 43 м.
Вид битрейта                             : Переменный
Битрейт                                  : 192 Кбит/сек
Каналы                                   : 2 канала
Частота                                  : 48,0 КГц
Метод сжатия                             : С потерями
Размер потока                            : 57,8 Мбайт (10%)
Выравнивание                             : Соединение по промежуткам
Продолжительность промежутка             : 24  мс. (0,58 видеокадр)
Время предзагрузки промежутка            : 493  мс.
Библиотека кодирования                   : LAME3.97b
Настройки программы                      : -m j -V 4 -q 3 -lowpass 18.6 --abr 192
-Скриншоты:
-

Еще

-Добавлена тринадцатая, заключительная, серия первого сезона
Яндекс.Метрика
Рейтинг@Mail.ru