Домашнее видео / Sex Tape (Джейк Кэздан / Jake Kasdan) [2014 г., комедия, TS] Dub

 

Создавать темы 29-Июл-2014 14:57

-Домашнее видео / Sex Tape-«Сними, но удали»--
Производство: США; Escape Artists, LStar Capital, Media Rights Capital Sony Pictures Entertainment (SPE)
Год выпуска: 2014 г.
Жанр: комедия
Продолжительность: 01:26:39 (фильм не полный)
Мировая премьера: 16 июля 2014
Российская премьера: 24 июля 2014, «WDSSPR»
Перевод: Профессиональный (полное дублирование)
Оригинальный аудиопоток: английский
Режиссер: Джейк Кэздан / Jake Kasdan-В ролях:
Кэмерон Диаз, Джейсон Сигел, Роб Кордри, Элли Кемпер, Роб Лоу, Нат Факсон, Нэнси Ленехан, Жизелль Эйзенберг, Харрисон Хольцер, Себастьян Хеджес Томас-Описание:
Семейная пара, оставшись на одну ночь без детей, решает повеселиться и записать пикантное видео со своим участием. На следующее утро они обнаруживают, что видео видели не только они…
-
Качество видео: TS
Контейнер: AVI
Видео кодек: XviD
Аудио кодек: AC3
Видео: 720x400; 2039 kbps; 29.970 fps; 0.236 Bit/Pixel
Аудио: 192 kbps; 2 ch; 48.0 kHz

Media Info

General
Complete name : D:\Torrents\SEx.Type.D.2014.TS.avi
Format : AVI
Format/Info : Audio Video Interleave
File size : 1.36 GiB
Duration : 1h 26mn
Overall bit rate : 2 243 Kbps
Movie name : SEx.Type.D.2014.TS
Genre : Comedy
Writing application : VirtualDubMod 1.5.10.2 (build 2540/release)
Original source form/Name : Movie
Video
ID : 0
Format : MPEG-4 Visual
Format profile : Advanced [email protected]
Format settings, BVOP : Yes
Format settings, QPel : No
Format settings, GMC : No warppoints
Format settings, Matrix : Custom
Codec ID : XVID
Codec ID/Hint : XviD
Duration : 1h 26mn
Bit rate : 2 039 Kbps
Width : 720 pixels
Height : 400 pixels
Display aspect ratio : 16:9
Frame rate : 29.970 fps
Color space : YUV
Chroma subsampling : 4:2:0
Bit depth : 8 bits
Scan type : Progressive
Compression mode : Lossy
Bits/(Pixel*Frame) : 0.236
Stream size : 1.23 GiB (91%)
Writing library : XviD 1.2.1 (UTC 2008-12-04)
Audio
ID : 1
Format : AC-3
Format/Info : Audio Coding 3
Mode extension : CM (complete main)
Format settings, Endianness : Big
Codec ID : 2000
Duration : 1h 26mn
Bit rate mode : Constant
Bit rate : 192 Kbps
Channel(s) : 2 channels
Channel positions : Front: L R
Sampling rate : 48.0 KHz
Bit depth : 16 bits
Compression mode : Lossy
Stream size : 119 MiB (9%)
Alignment : Split accross interleaves
Interleave, duration : 33 ms (1.00 video frame)
Interleave, preload duration : 500 ms
- -
Яндекс.Метрика
Рейтинг@Mail.ru