[ Сегодня на трекере фрилич! Идет свободное скачивание без начисления Download ]

Красавица и чудовище / La belle et la bête (2014) BDRip-AVC | (полное дублирование) Чистый звук

 

Создавать темы 24-Июл-2014 21:32

Красавица и чудовище / La belle et la bête Страна: Франция, Германия
Год выпуска: 2013
Жанр: фэнтези, мелодрама
Продолжительность: 01:53:04
Перевод: Профессиональный (полное дублирование) Чистый звук
Режиссер: Кристоф Ганс / Christophe Gans
Актеры: Леа Сейду, Венсан Кассель, Андре Дюссолье, Эдуардо Норьега, Мириам Шарленс, Одри Лами, Сара Жиродо, Жонатан Демурже, Николя Гоб, Лука Мельява
Описание фильма:
Дочь купца, смелая и отважная Белль, отправляется в замок чудовища, чтобы спасти жизнь своего отца. Очутившись в замке, Белль попадает в потусторонний мир волшебства, фантастических приключений и загадочной меланхолии.
Оказывается, что наводившее ужас на всю округу чудовище очень несчастно, а в его груди бьется доброе сердце. Белль все больше проникается симпатией к своему ужасному господину.
Благодаря пылкому сердцу и храбрости, она преодолевает все опасности, чтобы снять зловещие чары с чудовища. Но это произойдет, только если его сможет полюбить прекрасная девушка.
Качество видео: BDRip-AVC Исходник: La Belle et La Bête 2014 1080p BluRay VC-1 DTS-HD MA 5.1-WiHD
Формат: MKV Видео кодек: MPEG-4 AVC Аудио кодек: AC3
Видео: AVC, 1024x428 (2.40:1) at 24.000 fps, AVC at 1448 kbps avg, 0.138 bit/pixel
Аудио: Russian: 48 kHz; AC3 2.0; 320.00 kbps avg; профессиональный, полное дублирование
Субтитры: Английские
Навигация по главам: Есть

MediaInfo

Complete name : Krasavitsa i chudovishche.2014.BDRip.x264-LEONARDO_[scarabey.org].mkv
Format : Matroska
Format version : Version 2
File size : 1.42 GiB
Duration : 1h 53mn
Overall bit rate : 1 804 Kbps
Movie name : -=LEONARDO=-
Encoded date : UTC 2014-07-24 08:55:26
Writing application : mkvmerge v5.0.1 ('Es ist Sommer') built on Oct 23 2011 00:46:40
Writing library : libebml v1.2.2 + libmatroska v1.3.0
Attachment : Yes
Video
ID : 1
Format : AVC
Format/Info : Advanced Video Codec
Format profile : [email protected]
Format settings, CABAC : Yes
Format settings, ReFrames : 9 frames
Codec ID : V_MPEG4/ISO/AVC
Duration : 1h 53mn
Bit rate : 1 448 Kbps
Width : 1 024 pixels
Height : 428 pixels
Display aspect ratio : 2.40:1
Frame rate : 24.000 fps
Color space : YUV
Chroma subsampling : 4:2:0
Bit depth : 8 bits
Scan type : Progressive
Bits/(Pixel*Frame) : 0.138
Stream size : 1.14 GiB (80%)
Writing library : x264 core 125 r2208 d9d2288
Encoding settings : cabac=1 / ref=9 / deblock=1:-1:-1 / analyse=0x3:0x133 / me=umh / subme=11 / psy=1 / psy_rd=1.00:0.00 / mixed_ref=1 / me_range=32 / chroma_me=1 / trellis=2 / 8x8dct=1 / cqm=0 / deadzone=21,11 / fast_pskip=0 / chroma_qp_offset=-2 / threads=12 / lookahead_threads=2 / sliced_threads=0 / nr=0 / decimate=1 / interlaced=0 / bluray_compat=0 / constrained_intra=0 / bframes=8 / b_pyramid=2 / b_adapt=2 / b_bias=0 / direct=1 / weightb=1 / open_gop=0 / weightp=2 / keyint=250 / keyint_min=24 / scenecut=40 / intra_refresh=0 / rc=crf / mbtree=0 / crf=20.0 / qcomp=0.60 / qpmin=0 / qpmax=69 / qpstep=4 / ip_ratio=1.10 / pb_ratio=1.10 / aq=1:1.00
Language : English
Default : Yes
Forced : No
Audio
ID : 2
Format : AC-3
Format/Info : Audio Coding 3
Mode extension : CM (complete main)
Codec ID : A_AC3
Duration : 1h 53mn
Bit rate mode : Constant
Bit rate : 320 Kbps
Channel(s) : 2 channels
Channel positions : Front: L R
Sampling rate : 48.0 KHz
Bit depth : 16 bits
Compression mode : Lossy
Stream size : 259 MiB (18%)
Language : Russian
Default : Yes
Forced : Yes
Text
ID : 3
Format : UTF-8
Codec ID : S_TEXT/UTF8
Codec ID/Info : UTF-8 Plain Text
Language : English
Default : No
Forced : No
Menu
00:00:00.000 : en:Chapter 01
00:03:18.833 : en:Chapter 02
00:06:48.083 : en:Chapter 03
00:11:21.250 : en:Chapter 04
00:17:08.541 : en:Chapter 05
00:28:11.291 : en:Chapter 06
00:31:36.000 : en:Chapter 07
00:37:27.250 : en:Chapter 08
00:44:22.458 : en:Chapter 09
00:51:00.458 : en:Chapter 10
00:53:44.125 : en:Chapter 11
01:04:05.083 : en:Chapter 12
01:10:15.958 : en:Chapter 13
01:16:07.416 : en:Chapter 14
01:22:10.458 : en:Chapter 15
01:25:59.833 : en:Chapter 16
01:28:07.416 : en:Chapter 17
01:33:15.166 : en:Chapter 18
01:41:54.750 : en:Chapter 19
01:45:26.666 : en:Chapter 20

Скриншоты:

Яндекс.Метрика
Рейтинг@Mail.ru