[ Сегодня на трекере фрилич! Идет свободное скачивание без начисления Download ]

Клиентка французского жиголо / Cliente (2008) DVDRip [H.264]

 

Создавать темы 19-Июл-2014 06:25

-Клиентка французского жиголо / Cliente (2008) DVDRip [H.264] - Год выпуска: 2008
Жанр: Драма, Мелодрама
Производство: Франция / Canal+ [fr], Centre National de la Cin�matographie (CNC), Cin� Cin�mas, France 3 Cin�ma, Gaumont
Описание фильма:
Джудит, разведённая, пятидесятилетняя женщина, режиссёр программ телемагазина. Все развлечения Джудит, сводятся к эскорт-услугам молодых людей. Однажды вечером она знакомится с Патриком… Оба скрывают тайну…
Режиссер: Жозиан Баласко
Сценарий: Жозиан Баласко, Франк Ли Джозеф
Продюсер: Сирил Кольбо-Жюстен, Жан-Батист Дюпон, Патрик Батто
Актеры: Натали Бэй, Эрик Каравака, Изабель Карре, Жозиан Баласко, Катрин Ижель, Марилу Берри, Фелисите Вуасси, Жорж Агилар, Сандрин Ле Берр, Дэвид Россо
Продолжительность: 01:39:37
Качество видео: DVDRip [Profile LQ]
Перевод: Многоголосый закадровый

Дата мировой премьеры: 1 октября 2008
Дата российской премьеры: 26 ноября 2009, «Русский Репортаж»
Дата выхода DVD релиза: 4 марта 2010, «Топ Трейд»
Видеокодек: MPEG-4 AVC/H.264
Битрейт видео: ~2037 Кбит/сек
Размер кадра: 720x400
Аудиокодек: AC3 2.0
Битрейт аудио: 192 Кбит/сек

MediaInfo:

General
Unique ID : 244938845860595724306128564316614430350 (0xB845817AB5C732C5A1582BEA1BA00E8E)
Complete name : F:\Downloads\Клиентка французского жиголо.mkv
Format : Matroska
Format version : Version 4 / Version 2
File size : 1.55 GiB
Duration : 1h 39mn
Overall bit rate : 2 231 Kbps
Encoded date : UTC 2014-07-16 21:15:31
Writing application : mkvmerge v6.4.1 ('Omega Point') built on Sep 16 2013 22:05:10
Writing library : libebml v1.3.0 + libmatroska v1.4.1
Video
ID : 1
Format : AVC
Format/Info : Advanced Video Codec
Format profile : [url=mailto:[email protected]][email protected][/url]
Format settings, CABAC : Yes
Format settings, ReFrames : 8 frames
Codec ID : V_MPEG4/ISO/AVC
Duration : 1h 39mn
Bit rate : 2 037 Kbps
Width : 720 pixels
Height : 400 pixels
Display aspect ratio : 16:9
Frame rate mode : Constant
Frame rate : 25.000 fps
Color space : YUV
Chroma subsampling : 4:2:0
Bit depth : 8 bits
Scan type : Progressive
Bits/(Pixel*Frame) : 0.283
Stream size : 1.39 GiB (89%)
Title : Cliente
Writing library : x264 core 125 r2208 d9d2288
Encoding settings : cabac=1 / ref=8 / deblock=1:-1:-1 / analyse=0x3:0x133 / me=umh / subme=9 / psy=1 / psy_rd=1.00:0.10 / mixed_ref=1 / me_range=32 / chroma_me=1 / trellis=2 / 8x8dct=1 / cqm=0 / deadzone=21,11 / fast_pskip=0 / chroma_qp_offset=-3 / threads=6 / lookahead_threads=1 / sliced_threads=0 / nr=0 / decimate=1 / interlaced=0 / bluray_compat=0 / constrained_intra=0 / bframes=3 / b_pyramid=2 / b_adapt=2 / b_bias=0 / direct=3 / weightb=1 / open_gop=0 / weightp=2 / keyint=250 / keyint_min=25 / scenecut=40 / intra_refresh=0 / rc_lookahead=60 / rc=2pass / mbtree=1 / bitrate=2037 / ratetol=1.0 / qcomp=0.60 / qpmin=0 / qpmax=69 / qpstep=4 / cplxblur=20.0 / qblur=0.5 / ip_ratio=1.40 / aq=1:1.00
Language : French
Default : Yes
Forced : No
Audio
ID : 2
Format : AC-3
Format/Info : Audio Coding 3
Mode extension : CM (complete main)
Format settings, Endianness : Big
Codec ID : A_AC3
Duration : 1h 39mn
Bit rate mode : Constant
Bit rate : 192 Kbps
Channel(s) : 2 channels
Channel positions : Front: L R
Sampling rate : 48.0 KHz
Bit depth : 16 bits
Compression mode : Lossy
Stream size : 137 MiB (9%)
Title : Профессиональный многоголосый
Language : Russian
Default : Yes
Forced : No
Скриншоты:Время раздачи: с 13:00 до 01:00 по Москве (выходные круглосуточно), до 10 скачавших
Яндекс.Метрика
Рейтинг@Mail.ru