Идеальный шторм / Perfect Storm (2000) BDRip

 

Создавать темы 15-Июл-2014 08:28

-Идеальный шторм / Perfect Storm (2000) BDRip- Год выпуска: 2000
Жанр: Драма, Триллер, Приключения
Описание фильма:
Волны Атлантики вздымаются на 100-футовую высоту. Завывающий ветер невиданной силы. Хэллоуин 1991 года. Стихия наступает на трех фронтах, и один из них — ураган «Грейс» — поднимает сильнейший в истории человечества шторм.
Режиссер: Вольфганг Петерсен / Wolfgang Petersen
Актеры: Джордж Клуни, Марк Уолберг, Дайан Лэйн, Джон Си Райли, Уильям Фихтнер, Джон Хоукс, Аллен Пэйн, Мэри Элизабет Мастрантонио, Карен Аллен, Черри Джонс
Продолжительность: 02:09:49
Качество видео: BDRip
Перевод: Дублированный
Релиз группа: HQ Underverse

Дата мировой премьеры: 26 июня 2000
Дата российской премьеры: 29 июля 2000
Видеокодек: Xvid
Битрейт видео: ~2005
Размер кадра: 720x304
Аудиокодек: AC3 5.1
Битрейт аудио: 384
Сэмпл: Ссылка
Время раздачи: Сб-Вс с 09:00 до 23:30

MediaInfo

General
Complete name : D:\Video\Movies\Releases\Perfect.Storm.2000.BDRip.XviD.AC3.Rus.D.HQ.Underverse.avi
Format : AVI
Format/Info : Audio Video Interleave
Format profile : OpenDML
File size : 2.18 GiB
Duration : 2h 9mn
Overall bit rate : 2 402 Kbps
Writing application : VirtualDubMod 1.5.10.3 | www.virtualdub-fr.org || (build 2550/release)
Writing library : VirtualDubMod build 2550/release
Video
ID : 0
Format : MPEG-4 Visual
Format profile : Advanced [email protected]
Format settings, BVOP : 1
Format settings, QPel : No
Format settings, GMC : No warppoints
Format settings, Matrix : Custom
Codec ID : XVID
Codec ID/Hint : XviD
Duration : 2h 9mn
Bit rate : 2 006 Kbps
Width : 720 pixels
Height : 304 pixels
Display aspect ratio : 2.35:1
Frame rate : 23.976 fps
Color space : YUV
Chroma subsampling : 4:2:0
Bit depth : 8 bits
Scan type : Progressive
Compression mode : Lossy
Bits/(Pixel*Frame) : 0.382
Stream size : 1.82 GiB (84%)
Writing library : XviD 64
Audio
ID : 1
Format : AC-3
Format/Info : Audio Coding 3
Mode extension : CM (complete main)
Format settings, Endianness : Big
Codec ID : 2000
Duration : 2h 9mn
Bit rate mode : Constant
Bit rate : 384 Kbps
Channel(s) : 6 channels
Channel positions : Front: L C R, Side: L R, LFE
Sampling rate : 48.0 KHz
Bit depth : 16 bits
Compression mode : Lossy
Delay relative to video : 22ms
Stream size : 357 MiB (16%)
Alignment : Split accross interleaves
Interleave, duration : 42 ms (1.00 video frame)
Interleave, preload duration : 500 ms
Title : Russian Dub
----
Яндекс.Метрика
Рейтинг@Mail.ru