[ Сегодня на трекере фрилич! Идет свободное скачивание без начисления Download ]

Чемпионат Мира 2014 / FIFA 2014 / Бразилия - Голландия (Нидерланды) / За 3-е место [13.07.2014, Спорт 1 HD, Футбол, H.264, 50fps, HDTVRip/720p]

 

Создавать темы 13-Июл-2014 20:29

Чемпионат Мира 2014 / FIFA 2014
Бразилия - Голландия (Нидерланды) / За 3-е место
-Год выпуска: 13.07.2014
Вид спорта: Футбол
Участники: Бразилия - Голландия (Нидерланды)
Продолжительность: 02:07:05
Комментарий: русский (Владимир Стогниенко)-Автор рипа / записи: Striker
-Описание:
13 июля 2014, воскресенье. 00:00 мск
За 3-е место
Стадион: Манэ Гарринча - Национальный (Бразилиа, Бразилия) , 68043 зрителя (98% при вместимости 69432)
Главный судья: Джамель Хаймуди (Релизан, Алжир); Ассистент: Редуане Ачик (Марокко); Ассистент: Абделхалк Этшиали (Алжир)-Качество видео: HDTVRip
Контейнер: MKV
Видео кодек: H.264
Аудио кодек: AC3
Видео: 3963 Кбит/сек; 1280*720 (16:9); в 50,000 кадров/сек; 0.086 Бит/(Пиксели*Кадры); AVC
Аудио: 192 Кбит/сек; 48,0 КГц; 16 бит; 2 канала; АС-3

Составы команд

Бразилия
Вратари
1 Джефферсон Ботафого
12 Жулио Сезар Торонто
22 Виктор Атлетико Минейро
Защитники
2 Дани Алвес Барселона
3 Тиаго Силва (к) Пари Сен-Жермен
4 Давид Луис Челси[2]
6 Марсело Реал Мадрид
13 Данте Бавария
14 Максвелл Пари Сен-Жермен
15 Энрике Наполи
23 Майкон Рома
Полузащитники
5 Фернандиньо Манчестер Сити
8 Паулиньо Тоттенхэм Хотспур
11 Оскар Челси
16 Рамирес Челси
17 Луис Густаво Вольфсбург
18 Эрнанес Интернационале
19 Виллиан Челси
Нападающие
7 Халк Зенит (Санкт-Петербург)
9 Фред Флуминенсе
10 Неймар Барселона
20 Бернард Шахтёр (Донецк)
21 Жо Атлетико Минейро
Главный тренер Луис Фелипе Сколари Бразилия-Нидерланды
Вратари
1 Яспер Силлессен Аякс
22 Мишел Ворм Суонси Сити
23 Тим Крул Ньюкасл Юнайтед
Защитники
2 Рон Влар Астон Вилла
3 Стефан де Врей Фейеноорд
4 Бруну Мартинс Инди Фейеноорд
5 Дейли Блинд Аякс
7 Дэрил Янмат Фейеноорд
12 Паул Верхаг Аугсбург
13 Джоэл Велтман Аякс
14 Теренс Конголо Фейеноорд
Полузащитники
6 Найджел де Йонг Милан
8 Джонатан де Гузман Суонси Сити
10 Уэсли Снейдер Галатасарай
11 Арьен Роббен Бавария
16 Йорди Класи Фейеноорд
18 Лерой Фер Норвич Сити
20 Джорджиньо Вейналдум ПСВ
21 Мемфис Депай ПСВ
Нападающие
9 Робин ван Перси (к) Манчестер Юнайтед
15 Дирк Кёйт Фенербахче
17 Джермейн Ленс Динамо (Киев)
19 Клас-Ян Хюнтелар Шальке 04
Главный тренер Луи ван Гал Нидерланды

Media Info

Общее
Уникальный идентификатор : 174066136292843040099019673865354542999 (0x82F3EB1D823CB52F8EDCC58B0B7CFF97)
Формат : Matroska
Версия формата : Version 4 / Version 2
Размер файла : 3,76 Гбайт
Продолжительность : 2 ч. 7 м.
Общий поток : 4239 Кбит/сек
Дата кодирования : UTC 2014-07-12 22:33:44
Программа кодирования : mkvmerge v7.0.0 ('Where We Going') 64bit built on Jun 9 2014 15:16:27
Библиотека кодирования : libebml v1.3.0 + libmatroska v1.4.1
Видео
Идентификатор : 1
Формат : AVC
Формат/Информация : Advanced Video Codec
Профиль формата : [email protected]
Параметр CABAC формата : Да
Параметр ReFrames формата : 4 кадра
Параметр GOP формата : M=2, N=15
Идентификатор кодека : V_MPEG4/ISO/AVC
Продолжительность : 2 ч. 7 м.
Битрейт : 3963 Кбит/сек
Ширина : 1280 пикселей
Высота : 720 пикселей
Соотношение сторон : 16:9
Режим частоты кадров : Постоянный
Частота кадров : 50,000 кадров/сек
Цветовое пространство : YUV
Субдискретизация насыщенности : 4:2:0
Битовая глубина : 8 бит
Тип развёртки : Прогрессивная
Бит/(Пиксели*Кадры) : 0.086
Размер потока : 3,52 Гбайт (93%)
Default : Да
Forced : Нет
Основные цвета : BT.709
Характеристики трансфера : BT.709
Коэффициенты матрицы : BT.709
DURATION : 02:07:04.880000000
NUMBER_OF_FRAMES : 381244
NUMBER_OF_BYTES : 3854136940
_STATISTICS_WRITING_APP : mkvmerge v7.0.0 ('Where We Going') 64bit built on Jun 9 2014 15:16:27
_STATISTICS_WRITING_DATE_UTC : 2014-07-12 22:33:44
_STATISTICS_TAGS : BPS DURATION NUMBER_OF_FRAMES NUMBER_OF_BYTES
Аудио
Идентификатор : 2
Формат : AC-3
Формат/Информация : Audio Coding 3
Расширение режима : CM (complete main)
Параметр Endianness формата : Big
Идентификатор кодека : A_AC3
Продолжительность : 2 ч. 7 м.
Вид битрейта : Постоянный
Битрейт : 192 Кбит/сек
Каналы : 2 канала
Расположение каналов : Front: L R
Частота : 48,0 КГц
Битовая глубина : 16 бит
Метод сжатия : С потерями
Размер потока : 175 Мбайт (5%)
Язык : Russian
Default : Да
Forced : Нет
DURATION : 02:07:04.844000000
NUMBER_OF_FRAMES : 238274
NUMBER_OF_BYTES : 182994432
_STATISTICS_WRITING_APP : mkvmerge v7.0.0 ('Where We Going') 64bit built on Jun 9 2014 15:16:27
_STATISTICS_WRITING_DATE_UTC : 2014-07-12 22:33:44
_STATISTICS_TAGS : BPS DURATION NUMBER_OF_FRAMES NUMBER_OF_BYTES

Скриншоты

Яндекс.Метрика
Рейтинг@Mail.ru