[ Сегодня на трекере фрилич! Идет свободное скачивание без начисления Download ]

Чёрный ящик / Black Box / Сезон: 1 / Серии: 1-7 из 13 (Саймон Кёртис / Simon Curtis) [2014 г., драма, семейный, HDTVRip] VO (xaros) [Sub (Rus), + Original (Eng)] [обновляемая]

 

Создавать темы 12-Июл-2014 05:44

-Чёрный ящик / Black Box (сериал)-- Производство: США, 3 Arts Entertainment, Bad Hat Harry Productions, Bold Films
Жанр: драма, семейный
Год выпуска: 2014 г.
Продолжительность: 0:42:39
Перевод: Любительский (одноголосый, закадровый) [xaros]
Оригинальный аудиопоток: английский
Режиссер: Саймон Кёртис / Simon Curtis-В ролях: Келли Райлли, Дитч Дэвей, Дэвид Аяла, Али Вонг, Лора Фрейзер, Дэвид Чисам, Шиван Уильямс и др.-Описание: История о знаменитом неврологе — Элизабет Блэк. Она работает в Центре неврологических исследований и лечения, при этом сама борется с психическим заболеванием и скрывает это от своего жениха и семьи…-
Качество видео: HDTVRip
Контейнер: AVI
Видео кодек: XviD
Аудио кодек: MP3
Видео: 624x350 (1.78:1), 1004 kbps, 23.976 fps, 0.192 Bits/Pixel
Аудио Rus: 128.00 kbps, 2 ch, 48 kHz
Аудио Eng: 128.00 kbps, 2 ch, 48 kHz
Cубтитры: русские, английские
Формат субтитров: softsub (SRT)
Доп. информация о субтитрах: RUS(xaros);ENG(full)

Список серий

01. Kiss the Sky - Поцеловать небеса
02. Sweet Little Lies - Необходимая сладкая ложь.
03. Who Are You?- Кто ты?
04. Exceptional or Dead - Исключительный или мёртвый.
05. Jerusalem - Иерусалим.
06. Forget Me - Забудь меня.
07. Kodachrome - Кодахром.

Media Info

General
Complete name : B:\Сериалы, шоу\Black Box S01.HDTV_RUS[xaros]\Black.Box.S01E01.HDTV.RUS.xaros.avi
Format : AVI
Format/Info : Audio Video Interleave
File size : 389 MiB
Duration : 42mn 39s
Overall bit rate : 1 275 Kbps
Writing application : VirtualDubMod 1.5.10.2 (build 2540/release)
Writing library : VirtualDubMod build 2540/release
Video
ID : 0
Format : MPEG-4 Visual
Format profile : Advanced [email protected]
Format settings, BVOP : 2
Format settings, QPel : No
Format settings, GMC : No warppoints
Format settings, Matrix : Default (H.263)
Muxing mode : Packed bitstream
Codec ID : XVID
Codec ID/Hint : XviD
Duration : 42mn 39s
Bit rate : 1 005 Kbps
Width : 624 pixels
Height : 350 pixels
Display aspect ratio : 16:9
Frame rate : 23.976 fps
Color space : YUV
Chroma subsampling : 4:2:0
Bit depth : 8 bits
Scan type : Progressive
Compression mode : Lossy
Bits/(Pixel*Frame) : 0.192
Stream size : 307 MiB (79%)
Writing library : XviD 64
Audio #1
ID : 1
Format : MPEG Audio
Format version : Version 1
Format profile : Layer 3
Mode : Joint stereo
Mode extension : MS Stereo
Codec ID : 55
Codec ID/Hint : MP3
Duration : 42mn 39s
Bit rate mode : Constant
Bit rate : 128 Kbps
Channel(s) : 2 channels
Sampling rate : 48.0 KHz
Compression mode : Lossy
Stream size : 39.1 MiB (10%)
Alignment : Aligned on interleaves
Interleave, duration : 42 ms (1.00 video frame)
Interleave, preload duration : 504 ms
Audio #2
ID : 2
Format : MPEG Audio
Format version : Version 1
Format profile : Layer 3
Mode : Joint stereo
Mode extension : MS Stereo
Codec ID : 55
Codec ID/Hint : MP3
Duration : 42mn 39s
Bit rate mode : Constant
Bit rate : 128 Kbps
Channel(s) : 2 channels
Sampling rate : 48.0 KHz
Compression mode : Lossy
Stream size : 39.1 MiB (10%)
Alignment : Split accross interleaves
Interleave, duration : 42 ms (1.00 video frame)
Interleave, preload duration : 500 ms

Скриншоты

Яндекс.Метрика
Рейтинг@Mail.ru