Форс-мажоры / Suits / Сезон: 4 / Серии: 4 из 16 (Кевин Брэй / Kevin Bray, ...) [2014 г., драма, комедия, ..., WEB-DLRip] MVO (NewStudio) + Original (Eng) [обновляемая]

 

Создавать темы 12-Июл-2014 05:29

-Форс-мажоры / Suits
«Two Lawyers. One Degree»
-- Производство: США
Жанр: драма, комедия, ...
Год выпуска: 2014 г.-Премьера (мир): 23 июня 2011, ...
Премьера (РФ): 26 сентября 2011-Озвучка: Студия |NewStudio|
Перевод: Многоголосый закадровый, профессиональный
Оригинальный аудиопоток: английский-Перевод: Ptyza
Постер: Андрей Шапал-Режиссер: Кевин Брэй / Kevin Bray, Майкл Смит / Michael Smith, Антон Кроппер / Anton Cropper, ...-В ролях: Гэбриел Махт, Меган Маркл, Сара Рафферти, Патрик Джей Адамс, Рик Хоффман, Джина Торрес, Макс Топплин, Эбигейл Спенсер, Дэвид Костабайл, Аманда Шулл, ...-Описание:
Убегая после неудачной попытки сбыта наркотиков, юрист-самоучка Майк Росс, выдающий себя за выпускника Гарварда, попадает на собеседование к одному из лучших адвокатов по сделкам Нью-Йорка Харви Спектру.
Устав от скучных соискателей, мечтающих «верой и правдой служить букве закона», Харви рискует и нанимает Майка: у парня врожденный талант и фотографическая память. Так рождается один из самых неоднозначных, но, в то же время, и самых блестящих тандемов законников на Манхэттене.-Сезон: 4
Серии: 4 из 16 серий
Продолжительность: ~ 00:43:00 мин серия-Качество видео: WEB-DLRip
Контейнер: AVI
Видео кодек: XviD
Аудио кодек: MP3
Видео: MPEG-4 Visual at 1506 Кбит/сек: 720 x 400 (1.800) at 23.976 fps: 0.22 Бит/Пиксели
Аудио Rus: MPEG Audio at 128 Кбит/сек, 2 канала, 48,0 КГц |NewStudio|
Аудио Eng: MPEG Audio at 128 Кбит/сек, 2 канала, 48,0 КГц |Original|
Cубтитры: отсутствуют
- -

Список серий:

  • Раз,два, три, погнали (One-Two-Three Go...)
  • Завтрак, обед и ужин (Breakfast, Lunch and Dinner)
  • Два выстрела по коленям (Two in the Knees)
  • В долгу (Leveraged)
-

Media Info

Общее
Полное имя                               : E:\_Сериалы\_NeW_\Новая папка\Suits.s04e01.WEBDLRip.NewStudio.TV.avi
Формат                                   : AVI
Формат/Информация                        : Audio Video Interleave
Размер файла                             : 550 Мбайт
Продолжительность                        : 43 м.
Общий поток                              : 1776 Кбит/сек
Программа кодирования                    : VirtualDubMod 1.5.10.2 (build 2540/release)
Библиотека кодирования                   : VirtualDubMod build 2540/release
Видео
Идентификатор                            : 0
Формат                                   : MPEG-4 Visual
Профиль формата                          : Advanced [email protected]
Параметр BVOP формата                    : 2
Параметр QPel формата                    : Нет
Параметр GMC формата                     : Без точки перехода
Параметр матрицы формата                 : Default (MPEG)
Идентификатор кодека                     : XVID
Идентификатор кодека/Подсказка           : XviD
Продолжительность                        : 43 м.
Битрейт                                  : 1506 Кбит/сек
Ширина                                   : 720 пикселей
Высота                                   : 400 пикселей
Соотношение сторон                       : 16:9
Частота кадров                           : 23,976 кадра/сек
Цветовое пространство                    : YUV
Субдискретизация насыщенности            : 4:2:0
Битовая глубина                          : 8 бит
Тип развёртки                            : Прогрессивная
Метод сжатия                             : С потерями
Бит/(Пиксели*Кадры)                      : 0.218
Размер потока                            : 466 Мбайт (85%)
Библиотека кодирования                   : XviD 64
Аудио #1
Идентификатор                            : 1
Формат                                   : MPEG Audio
Версия формата                           : Version 1
Профиль формата                          : Layer 3
Режим                                    : Joint stereo
Расширение режима                        : MS Stereo
Идентификатор кодека                     : 55
Идентификатор кодека/Подсказка           : MP3
Продолжительность                        : 43 м.
Вид битрейта                             : Постоянный
Битрейт                                  : 128 Кбит/сек
Каналы                                   : 2 канала
Частота                                  : 48,0 КГц
Метод сжатия                             : С потерями
Размер потока                            : 39,6 Мбайт (7%)
Выравнивание                             : Соединение по промежуткам
Продолжительность промежутка             : 42  мс. (1,00 видеокадр)
Время предзагрузки промежутка            : 504  мс.
Аудио #2
Идентификатор                            : 2
Формат                                   : MPEG Audio
Версия формата                           : Version 1
Профиль формата                          : Layer 3
Режим                                    : Joint stereo
Расширение режима                        : MS Stereo
Идентификатор кодека                     : 55
Идентификатор кодека/Подсказка           : MP3
Продолжительность                        : 43 м.
Вид битрейта                             : Постоянный
Битрейт                                  : 128 Кбит/сек
Каналы                                   : 2 канала
Частота                                  : 48,0 КГц
Метод сжатия                             : С потерями
Размер потока                            : 39,6 Мбайт (7%)
Выравнивание                             : Соединение по промежуткам
Продолжительность промежутка             : 42  мс. (1,00 видеокадр)
Время предзагрузки промежутка            : 504  мс.
Библиотека кодирования                   : LAME3.99r
Настройки программы                      : -m j -V 4 -q 2 -lowpass 17 -b 128
-

Скриншот c названием фильма

-Скриншоты:
-

Еще

-

Внимание! Раздача ведётся путём добавления новых серий!

Внимание! Раздача ведётся путём добавления новых серий; при каждом добавлении создётся новый торрент. Чтобы начать докачку новой серии, пользователям необходимо сделать следующее:
(1) остановить скачивание,
(2) удалить старый торрент у себя из клиента (старые серии удалять не надо),
(3) скачать новый торрент и запустить его у себя в клиенте вместо старого, при этом указать клиенту путь в старую папку куда и должно происходить скачивание новых серий.
Ваш клиент при этом должен произвести хеширование (проверку) старой папки (если не производит сам - помогите ему сделать это), и будет докачивать только те серии которых у вас ещё нет. Старые серии при этом не удаляются, а продолжают раздаваться!
Eсли вы уже удалили старые серии, то предотвратить повторную закачку старых серий можно, отжав галочку в соответствующих местах при запуске нового торрента.
-Добавлена четвертая серия четвертого сезона
Яндекс.Метрика
Рейтинг@Mail.ru