Учитель английского / The English Teacher (Крейг Зиск) [2013, драма, комедия, BDRip 1080p] MVO [Лицензия]

 

Создавать темы 25-Окт-2013 09:36

--Учитель английского / The English Teacher-- Год выпуска: 2013
Страна: США
Производство: Artina Films
Жанр: драма, комедия
Продолжительность: 01:31:35
Перевод: Профессиональный (многоголосый закадровый) [Лицензия]-Режиссер: Крейг Зиск-В ролях: Джулианна Мур, Майкл Ангарано, Грег Киннер, Лили Коллинз, Фиона Шоу, Норберт Лео Батц, Джессика Хехт, Чарли Сэкстон, Натан Лэйн, Никки Блонски, Софи Кертис...-О фильме: Линда Синклер — учительница английского языка в средней школе маленького городка Кингстон, штат Пенсильвания. Линда вкладывает душу в свой предмет и ученикам нравятся её уроки, но она одинока, жизнь её размеренна и лишена ярких событий. Когда её бывший ученик Джейсон Шервуд возвращается домой из Нью-Йорка, не добившись успеха на поприще драматурга, Линда убеждает его поставить пьесу в родной школе. Но строгий отец Джейсона, доктор Том Шервуд, настаивает, чтобы сын поступил в юридическую школу...----Качество: BDRip 1080p
Формат: MKV
Видео кодек: H.264
Аудио кодек: AC-3, DTS
Видео: 1920x800 (2.40:1), 23.976 fps, MPEG-4 AVC, ~8684 kbps avg, 0.24 bit/pixel
Аудио #1: [RUS] 48.0 kHz, DTS, 5.1 (L,C,R,l,r) + LFE ch, ~755.00 kbps avg
Аудио #2: [RUS] 48.0 kHz, AC-3, 5.1 (L,C,R,l,r) + LFE ch, ~448.00 kbps avg
Аудио #3: [ENG] 48.0 kHz, DTS, 5.1 (L,C,R,l,r) + LFE ch, ~1510.00 kbps avg
Субтитры: нет--

Media Info

Общее
Уникальный идентификатор : 191095406475053154043801444109118988848 (0x8FC3A2F55E28476D977CABBD1E69E230)
Полное имя : D:Uchitel.anglijskogo.2012.P.BDRip.1080p.mkv
Формат : Matroska
Версия формата : Version 2
Размер файла : 7,30 Гбайт
Продолжительность : 1 ч. 31 м.
Общий поток : 11,4 Мбит/сек
Название фильма : The.English.Teacher.2013.BluRay.1080p.DTS.x264-CHD
Дата кодирования : UTC 2013-10-24 10:53:52
Программа кодирования : mkvmerge v6.3.0 ('You can't stop me!') built on Jun 28 2013 20:09:41
Библиотека кодирования : libebml v1.3.0 + libmatroska v1.4.0
Видео
Идентификатор : 1
Формат : AVC
Формат/Информация : Advanced Video Codec
Профиль формата : [email protected]
Параметр CABAC формата : Да
Параметр ReFrames формата : 5 кадров
Идентификатор кодека : V_MPEG4/ISO/AVC
Продолжительность : 1 ч. 31 м.
Битрейт : 8684 Кбит/сек
Ширина : 1920 пикселей
Высота : 800 пикселей
Соотношение сторон : 2,40:1
Режим частоты кадров : Постоянный
Частота кадров : 23,976 кадра/сек
Цветовое пространство : YUV
Субдискретизация насыщенности : 4:2:0
Битовая глубина : 8 бит
Тип развёртки : Прогрессивная
Бит/(Пиксели*Кадры) : 0.236
Размер потока : 5,41 Гбайт (74%)
Заголовок : [email protected]
Библиотека кодирования : x264 core 132 r2310 76a5c3a
Настройки программы : cabac=1 / ref=5 / deblock=1:-3:-3 / analyse=0x3:0x113 / me=umh / subme=10 / psy=1 / psy_rd=1.00:0.05 / mixed_ref=1 / me_range=32 / chroma_me=1 / trellis=2 / 8x8dct=1 / cqm=0 / deadzone=21,11 / fast_pskip=0 / chroma_qp_offset=-2 / threads=18 / lookahead_threads=1 / sliced_threads=0 / nr=0 / decimate=1 / interlaced=0 / bluray_compat=0 / constrained_intra=0 / bframes=5 / b_pyramid=2 / b_adapt=2 / b_bias=0 / direct=3 / weightb=1 / open_gop=0 / weightp=2 / keyint=250 / keyint_min=23 / scenecut=40 / intra_refresh=0 / rc=2pass / mbtree=0 / bitrate=8684 / ratetol=1.0 / qcomp=0.70 / qpmin=0 / qpmax=69 / qpstep=4 / cplxblur=20.0 / qblur=0.5 / ip_ratio=1.40 / pb_ratio=1.30 / aq=2:1.00
Язык : English
Default : Да
Forced : Нет
Аудио #1
Идентификатор : 2
Формат : DTS
Формат/Информация : Digital Theater Systems
Режим : 16
Параметр Endianness формата : Big
Идентификатор кодека : A_DTS
Продолжительность : 1 ч. 31 м.
Вид битрейта : Постоянный
Битрейт : 755 Кбит/сек
Каналы : 6 каналов
Расположение каналов : Front: L C R, Side: L R, LFE
Частота : 48,0 КГц
Битовая глубина : 24 бит
Метод сжатия : С потерями
Размер потока : 495 Мбайт (7%)
Язык : Russian
Default : Да
Forced : Нет
Аудио #2
Идентификатор : 3
Формат : AC-3
Формат/Информация : Audio Coding 3
Расширение режима : CM (complete main)
Параметр Endianness формата : Big
Идентификатор кодека : A_AC3
Продолжительность : 1 ч. 31 м.
Вид битрейта : Постоянный
Битрейт : 448 Кбит/сек
Каналы : 6 каналов
Расположение каналов : Front: L C R, Side: L R, LFE
Частота : 48,0 КГц
Битовая глубина : 16 бит
Метод сжатия : С потерями
Размер потока : 294 Мбайт (4%)
Язык : Russian
Default : Нет
Forced : Нет
Аудио #3
Идентификатор : 4
Формат : DTS
Формат/Информация : Digital Theater Systems
Режим : 16
Параметр Endianness формата : Big
Идентификатор кодека : A_DTS
Продолжительность : 1 ч. 31 м.
Вид битрейта : Постоянный
Битрейт : 1509 Кбит/сек
Каналы : 2 канала
Расположение каналов : Front: L R
Частота : 48,0 КГц
Битовая глубина : 24 бит
Метод сжатия : С потерями
Размер потока : 991 Мбайт (13%)
Заголовок : English DTS 5.1 1509Kbps
Язык : English
Default : Нет
Forced : Нет

Скриншоты

-- --

Создавать темы 26-Янв-2016 20:26 (спустя 2 года 3 месяца)

Топик был перенесен из форума Зарубежные Новинки (HD*Rip/LQ, DVDRip) в форум Зарубежные Фильмы (HD)
T_O_M
Яндекс.Метрика
Рейтинг@Mail.ru