12 лет рабства / 12 Years a Slave (2013) TS [UKR]

 

Создавать темы 07-Июл-2014 14:55

12 лет рабства / 12 Years a Slave (2013) TS
" The extraordinary true story of Solomon Northup "
- Год выпуска: 2013
Жанр: Драма, Биография, История
Производство: США, Великобритания / Regency Enterprises, River Road Entertainment, Plan B Entertainment, New Regency Pictures, Film4
Язык: украинский
Перевод: многоголосый закадровый
Режиссер: Стив МакКуин
Продюсер: Деде Гарднер, Энтони Катагас, Джереми Клейнер
Актеры: Чиветель Эджиофор, Майкл Фассбендер, Бенедикт Камбербэтч, Пол Дано, Пол Джаматти, Лупита Нионго, Сара Полсон, Брэд Питт, Элфри Вудард, Куавенжаней Уоллис
Описание фильма:
Соломон Нортап был женатым и образованным мужчиной, который жил и работал в Нью-Йорке, когда два человека однажды предложили ему привлекательную работу в Вашингтоне. По прибытии он был похищен, стал рабом и влачил жалкую жизнь, переходя от одного хозяина к другому.
Дата мировой премьеры: 30 августа 2013
Дата российской премьеры: 12 декабря 2013, «Централ Партнершип»
Дата украинской премьеры: 12 декабря 2013, «Интерфильм», «Централ Партнершип»


Продолжительность: 02:06:20
Качество видео: TS
Видеокодек: XVID
Битрейт видео: ~ 1 404 Kbps
Размер кадра: 720x384 (1.875), 29.970 fps
Аудио: AC-3, 48.0 KHz, 2 ch, 192 Kbps, CBR

MediaInfo

E:\Фільми\12 Years a Slave (2013) TS Ukr.avi
General
  • Complete name : E:\Фільми\12 Years a Slave (2013) TS Ukr.avi
  • Format : AVI
  • Format/Info : Audio Video Interleave
  • File size : 1.42 GiB
  • Duration : 2h 6mn
  • Overall bit rate : 1 608 Kbps
  • Writing application : VirtualDubModRus 1.5.10.2 (build 2542/release)
  • Writing library : VirtualDub build 32507/release
    Video #0
  • ID : 0
  • Format : MPEG-4 Visual
  • Format profile : Advanced [email protected]
  • Format settings, BVOP : 2
  • Format settings, QPel : No
  • Format settings, GMC : No warppoints
  • Format settings, Matrix : Custom
  • Codec ID : XVID
  • Codec ID/Hint : XviD
  • Duration : 2h 6mn
  • Bit rate : 1 404 Kbps
  • Width : 720 pixels
  • Height : 384 pixels
  • Display aspect ratio : 1.85:1
  • Frame rate : 29.970 fps
  • Color space : YUV
  • Chroma subsampling : 4:2:0
  • Bit depth : 8 bits
  • Scan type : Progressive
  • Compression mode : Lossy
  • Bits/(Pixel*Frame) : 0.169
  • Stream size : 1.24 GiB (87%)
  • Writing library : XviD 1.2.1 (UTC 2008-12-04)
    Audio #1
  • ID : 1
  • Format : AC-3
  • Format/Info : Audio Coding 3
  • Mode extension : CM (complete main)
  • Format settings, Endianness : Big
  • Codec ID : 2000
  • Duration : 2h 6mn
  • Bit rate mode : Constant
  • Bit rate : 192 Kbps
  • Channel count : 2 channels
  • Channel positions : Front: L R
  • Sampling rate : 48.0 KHz
  • Bit depth : 16 bits
  • Compression mode : Lossy
  • Stream size : 173 MiB (12%)
  • Alignment : Aligned on interleaves
  • Interleave, duration : 33 ms (1.00 video frame)
  • Interleave, preload duration : 512 ms

-

Рецензия к фильму

Нужный и правильный фильм, на долгие годы закрывающий тему рабства и не только
Определённо, каждому новому поколению зрителей необходимо через экран напоминать о мрачных страницах в истории человечества, чтобы тем самым привить лучшие гуманистические идеи. Лента Стива МакКуина — один флагманов этого движения: не столько манифест против рабства, как формы эксплуатации одного человека другим, сколько призыв к человеколюбию. Смысловое ядро фильма — рабство, как предвестник холокоста. Через сцены жестоких унижений и пыток, содержания в не воли, подавления личности складывается мостик к осознанию того, что негативный опыт одного государства (южные штаты США) не был услышан остальным миром, отчего потом ужасы фашизма заставили всех содрогнуться. В образах героев Майкла Фассбендера (показавшего едва ли не лучшую игру в карьере) и Пола Джиаматти угадываются реальные диктаторы, которые в 40-е годы ХХ века приказывали насиловать, сжигать и всячески издеваться над теми, кто не представляет «расу господ». В то же время фильм воспевает силу человеческого духа и возносит роль личности: в отличие от многих рабов, показанных в картине, персонаж Чиветеля Эджиофора не целовал руки хозяев, которыми те его же и били, не смирился со своей участью даже, когда очередной плантатор предоставлял чуть ли не курортные условия жизни в не воли, не боялся словом и кулаками отстаивать свои позиции и просто — право на жизнь.
И все же, в лишённой смысловых и драматургических изъянов картине, не обошлось без спорных моментов. В фильме, насквозь пропитанном болью, злобой и отчаянием, роль наёмного работника, беззаботного и счастливого, исполнил Брэд Питт, который самого себя и сыграл — лакимена с голливудской улыбкой, дающего уроки, как жить счастливо. Пусть он выступил продюсером фильма, но меру надо было знать. Когда его герой, плачущему от безысходности Соломону Нортапу, вальяжно напевает про то, как круто быть самому себе хозяином и путешествовать по миру, воображение рисует дреды на голове, разноцветную вязаную шапочку и регги, звучащее из магнитофона. Не в этой картине Питту место, не в этой.
Скриншоты:Время раздачи:
с 10:00 до 22:30 по возможности и в другое время
______________________________________________________________________________
Яндекс.Метрика
Рейтинг@Mail.ru