В спорте только девушки (Евгений Невский) [Комедия, Спорт, 2014] (TS)

 

Создавать темы 06-Июл-2014 05:01

-В спорте только девушки- Год выпуска: 2014
Производство: Россия
Жанр: Комедия, Спорт
Перевод: Не требуется (русский)
Субтитры: Отсутствуют
Дата мировой премьеры: 6 февраля 2014
Дата российской премьеры: 6 февраля 2014, «Централ Партнершип»
Дата украинской премьеры: 6 февраля 2014, «Ukrainian Film Distribution»
Режиссер: Евгений Невский
Продюсер: Александр Цекало, Глеб Фетисов, Руслан Сорокин
Актеры: Лянка Грыу, Александр Головин, Екатерина Вилкова, Илья Глинников, Александр Ведменский, Михаил Трухин, Алена Чехова, Алексей Золотовицкий, Дмитрий Мухамадеев, Татьяна Рыбинец
Описание фильма:Три друга-сноубордиста попадают в опасную для жизни переделку. Спасаясь от погони, парни «внедряются» в женскую сборную по сноуборду.
Продолжительность: 01:28:13
Качество видео: TS
Видеокодек: Xvid
Битрейт видео: ~974 Кбит/с
Размер кадра: 688x384
Аудиокодек: MP3 2.0
Битрейт аудио: 128 Кбит/с
Сэмпл: Скачать

MediaInfo

Общее
Формат                                   : AVI
Формат/Информация                        : Audio Video Interleave
Размер файла                             : 700 Мбайт
Продолжительность                        : 1 ч. 28 м.
Общий поток                              : 1109 Кбит/сек
Программа кодирования                    : VirtualDubMod 1.5.4.1 (build 2178/release)
Библиотека кодирования                   : VirtualDubMod build 2178/release
[br]
Видео
Идентификатор                            : 0
Формат                                   : MPEG-4 Visual
Профиль формата                          : Advanced [email protected]
Параметр BVOP формата                    : 1
Параметр QPel формата                    : Нет
Параметр GMC формата                     : Без точки перехода
Параметр матрицы формата                 : Выборочная
Идентификатор кодека                     : XVID
Идентификатор кодека/Подсказка           : XviD
Продолжительность                        : 1 ч. 28 м.
Битрейт                                  : 974 Кбит/сек
Ширина                                   : 688 пикселей
Высота                                   : 384 пикселя
Соотношение сторон                       : 16:9
Частота кадров                           : 25,000 кадров/сек
Цветовое пространство                    : YUV
Субдискретизация насыщенности            : 4:2:0
Битовая глубина                          : 8 бит
Тип развёртки                            : Прогрессивная
Метод сжатия                             : С потерями
Бит/(Пиксели*Кадры)                      : 0.147
Размер потока                            : 615 Мбайт (88%)
Библиотека кодирования                   : XviD 64
[br]
Аудио
Идентификатор                            : 1
Формат                                   : MPEG Audio
Версия формата                           : Version 1
Профиль формата                          : Layer 3
Идентификатор кодека                     : 55
Идентификатор кодека/Подсказка           : MP3
Продолжительность                        : 1 ч. 28 м.
Вид битрейта                             : Постоянный
Битрейт                                  : 128 Кбит/сек
Каналы                                   : 2 канала
Частота                                  : 48,0 КГц
Метод сжатия                             : С потерями
Размер потока                            : 80,8 Мбайт (12%)
Выравнивание                             : Соединение по промежуткам
Продолжительность промежутка             : 80  мс. (2,00 видеокадра)
Время предзагрузки промежутка            : 504  мс.
Библиотека кодирования                   : LAME3.99r
Настройки программы                    : -m s -V 4 -q 2 -lowpass 17 -b 128
Скриншоты:-
Яндекс.Метрика
Рейтинг@Mail.ru