Ой, Ма-моч-ки!../Ой, мамочки! [Серии 1-12 из 12] (Иван Павлов) [2012-2014, Мелодрама, SATRip]

 

Создавать темы 03-Июл-2014 16:44

-Ой, Ма-моч-ки!../Ой, мамочки! [Серии 1-12 из 12]- Год выпуска: 2012-2014
страна Россия, Беларусь
Жанр: Мелодрама

Режиссер: Иван Павлов
Актеры: Александр Макогон, Вера Полякова, Александра Назарова, Анна Казючиц, Игорь Сигов, Алеся Пуховая, Валентина Гарцуева, Светлана Боровская, Анастасия Орёл, Денис Паршин, Владислав Бархатов, Сергей Власов (IV), Татьяна Чердынцева, Елена Дубровская, Инна Коляда, Яна Касперович, Светлана Аникей, Светлана Зеленковская, Оксана Лесная, Вероника Пляшкевич, Евгения Кульбачная, Екатерина Шуляк
Описание фильма:
Вера Михайловна работает заведующей отделением патологии в одном из городских родильных домов. Это очень непростая и очень ответственная работа – помогать будущим мамам произвести на свет здоровых и счастливых малышей. Тем более, что мама маме рознь – кто-то из пациенток Веры Михайловны состоит в законном браке и счастливо ждёт прибавления в семействе, кто-то желает родить ребенка несмотря на хрупкое здоровье или сопротивление родных, а кто-то очень одинок и всерьез помышляет об отказе от первенца… У всех будущих мам есть своя история – трогательная и волнительная, радостная или печальная, но обязательно полная надежды.
Продолжительность: ~ 00:49:00 серия
Качество видео: SATRip
Сэмпл: Скачать
Видеокодек: Xvid
Битрейт видео: ~1620 Кбит/с
Размер кадра: 720x400 (16:9)
Аудиокодек: MP3
Битрейт аудио: 192 Кбит/с, 2 ch

MediaInfo

Format                         : AVI
Format/Info                    : Audio Video Interleave
File size                      : 651 MiB
Duration                       : 50mn 2s
Overall bit rate               : 1 819 Kbps
Writing application            : VirtualDubMod 1.5.10.3 | [url=http://www.virtualdub-fr.org]www.virtualdub-fr.org[/url] || (build 2550/release)
Writing library                : VirtualDubMod build 2550/release
[br]
Video
ID                             : 0
Format                         : MPEG-4 Visual
Format profile                 : Advanced [email protected]
Format settings, BVOP          : 1
Format settings, QPel          : No
Format settings, GMC           : No warppoints
Format settings, Matrix        : Default (MPEG)
Codec ID                       : XVID
Codec ID/Hint                  : XviD
Duration                       : 50mn 2s
Bit rate                       : 1 617 Kbps
Width                          : 720 pixels
Height                         : 400 pixels
Display aspect ratio           : 16:9
Frame rate                     : 25.000 fps
Color space                    : YUV
Chroma subsampling             : 4:2:0
Bit depth                      : 8 bits
Scan type                      : Progressive
Compression mode               : Lossy
Bits/(Pixel*Frame)             : 0.225
Stream size                    : 579 MiB (89%)
Writing library                : XviD 1.2.1 (UTC 2008-12-04)
[br]
Audio
ID                             : 1
Format                         : MPEG Audio
Format version                 : Version 1
Format profile                 : Layer 3
Mode                           : Joint stereo
Mode extension                 : MS Stereo
Codec ID                       : 55
Codec ID/Hint                  : MP3
Duration                       : 50mn 2s
Bit rate mode                  : Constant
Bit rate                       : 192 Kbps
Channel(s)                     : 2 channels
Sampling rate                  : 48.0 KHz
Compression mode               : Lossy
Stream size                    : 68.7 MiB (11%)
Alignment                      : Aligned on interleaves
Interleave, duration           : 40 ms (1.00 video frame)
Interleave, preload duration   : 504 ms
Writing library                : LAME3.99r
Encoding settings              : -m j -V 4 -q 2 -lowpass 18.6 -b 192
Скриншоты:
Яндекс.Метрика
Рейтинг@Mail.ru