Карательный отряд / Force of Execution (Киони Ваксман/Keoni Waxman) [Боевик, 2013] (HDRip) [VO]

 

Создавать темы 02-Июл-2014 15:14

-Карательный отряд / Force of Execution-«Don't break the code»- Год выпуска: 2013
Производство: США
Жанр: Боевик
Перевод: Одноголосый закадровый, любительский
Субтитры: Отсутствуют
Дата мировой премьеры: 15 января 2014
Дата российской премьеры: Нет информации
Дата выхода DVD релиза: Нет информации
Режиссер: Киони Ваксман
Продюсер: Николя Картье, Филлип Б. Голдфайн, Стивен Сигал
Актеры: Стивен Сигал, Винг Реймз, Дэнни Трехо, Хесус мл., Брен Фостер, Дженни Гэбриэлль, Дэвид Хаус, Сара Минник, Эрик Стейниг, Дж. Энтони Пена
Описание фильма:
Криминальная империя была родной для Александра Коатеса и разрушительной для его врагов, пока он номер один. Роман Хурст, испортил то, что было обычным делом. Александр спас своему протеже жизнь, но запачкал руки, что заставило Хурста уйти в отставку навсегда. Вскоре Александр понял, что ему нужна помощь Хурста в последний раз, когда появился Айсман, безжалостный убийца.

Продолжительность: 01:38:55
Качество видео: HDRip
Видеокодек: Xvid
Битрейт видео: ~1521 Kb/s
Размер кадра: 720x400
Аудиокодек: AC3 5.1
Битрейт аудио: 448 Kb/s

MediaInfo:

Общее
Формат                                   : AVI
Формат/Информация                        : Audio Video Interleave
Размер файла                             : 1,37 Гбайт
Продолжительность                        : 1 ч. 38 м.
Общий поток                              : 1978 Кбит/сек
Программа кодирования                    : VirtualDubMod 1.5.10.2 (build 2540/release)
Библиотека кодирования                   : VirtualDubMod build 2540/release
[br]
Видео
Идентификатор                            : 0
Формат                                   : MPEG-4 Visual
Профиль формата                          : Advanced [email protected]
Параметр BVOP формата                    : 2
Параметр QPel формата                    : Нет
Параметр GMC формата                     : Без точки перехода
Параметр матрицы формата                 : Выборочная
Идентификатор кодека                     : XVID
Идентификатор кодека/Подсказка           : XviD
Продолжительность                        : 1 ч. 38 м.
Битрейт                                  : 1521 Кбит/сек
Ширина                                   : 720 пикселей
Высота                                   : 400 пикселей
Соотношение сторон                       : 16:9
Частота кадров                           : 23,976 кадра/сек
Цветовое пространство                    : YUV
Субдискретизация насыщенности            : 4:2:0
Битовая глубина                          : 8 бит
Тип развёртки                            : Прогрессивная
Метод сжатия                             : С потерями
Бит/(Пиксели*Кадры)                      : 0.220
Размер потока                            : 1,05 Гбайт (77%)
Библиотека кодирования                   : XviD 1.2.1 (UTC 2008-12-04)
[br]
Аудио
Идентификатор                            : 1
Формат                                   : AC-3
Формат/Информация                        : Audio Coding 3
Расширение режима                        : CM (complete main)
Параметр Endianness формата              : Big
Идентификатор кодека                     : 2000
Продолжительность                        : 1 ч. 38 м.
Вид битрейта                             : Постоянный
Битрейт                                  : 448 Кбит/сек
Каналы                                   : 6 каналов
Расположение каналов                     : Front: L C R, Side: L R, LFE
Частота                                  : 48,0 КГц
Битовая глубина                          : 16 бит
Метод сжатия                             : С потерями
Размер потока                            : 317 Мбайт (23%)
Выравнивание                             : Разделение по промежуткам
Продолжительность промежутка             : 42  мс. (1,00 видеокадр)
Время предзагрузки промежутка            : 500  мс.
Скриншоты:

Яндекс.Метрика
Рейтинг@Mail.ru