[ Сегодня на трекере фрилич! Идет свободное скачивание без начисления Download ]

Диана: История любви / Diana (2013) DVDScr [VO]

 

Создавать темы 02-Июл-2014 08:02

Диана: История любви / Diana (2013) DVDScr- Год выпуска: 2013
Жанр: Драма, Мелодрама
Произведено: Великобритания, Франция, Швеция, Бельгия
Перевод: Одноголосый закадровый, любительский
Озвучка / Автор перевода: Vano
Субтитры: Вшитые не отключаемые
Язык субтитров: Арабский
Дата мировой премьеры: 5 сентября 2013
Дата российской премьеры: 5 декабря 2013, «Вольга», «Премиум Фильм»
Дата выхода DVD релиза: 30 января 2014, «CP Дистрибуция»,
Режиссер: Оливер Хиршбигель
Продюсер: Роберт Бернштейн, Дуглас Рэй, Уолтер Эйрс
Актеры: Наоми Уоттс, Навин Эндрюс, Дуглас Ходж, Джеральдин Джеймс, Чарльз Эдвардс, Дэниэл Пайрри, Кэс Анвар, Джульет Стивенсон, Джонатан Керриган, Лоуренс Белчер
Описание фильма:
Принцесса Диана — самая популярная женщина своего времени, еще при жизни названная «принцессой людских сердец». Она покорила сердца миллионов, ей признавались в любви все — от принца Англии до могущественных миллиардеров… Но кого любила она сама?
Через несколько лет после расставания с принцем Чарльзом леди Диана почти забывает о личной жизни и посвящает себя общественной деятельности. Ее график заполнен до предела, встречи и мероприятия идут нескончаемой чередой, пока, посещая одну из лондонских больниц, она случайно знакомится с 36-летним кардиохирургом. Так начинается роман, ставший по свидетельству многих друзей Дианы «любовью всей ее жизни». Официальные аудиенции в Кенсингтонском дворце и тайные свидания в ночных клубах, радость коротких встреч и боль расставаний, желание всегда быть вместе и стремление избежать огласки…
Продолжительность: 01:47:57
Качество видео: DVDScr
Видеокодек: Xvid
Битрейт видео: ~1614 kb/s
Размер кадра: 720x384
Аудиокодек: AC3 2.0
Битрейт аудио: 192 kb/s
Сэмпл: Скачать

MI

Полное имя : Diana.2013.L1.SCR.1400MB.avi
Формат : AVI
Формат/Информация : Audio Video Interleave
Размер файла : 1,37 Гбайт
Продолжительность : 1 ч. 47 м.
Общий поток : 1815 Кбит/сек
Программа кодирования : VirtualDubMod 1.5.10.2 (build 2540/release)
Библиотека кодирования : VirtualDubMod build 2540/release
Видео
Идентификатор : 0
Формат : MPEG-4 Visual
Профиль формата : Advanced [email protected]
Параметр BVOP формата : 2
Параметр QPel формата : Нет
Параметр GMC формата : Без точки перехода
Параметр матрицы формата : Default (MPEG)
Идентификатор кодека : XVID
Идентификатор кодека/Подсказка : XviD
Продолжительность : 1 ч. 47 м.
Битрейт : 1614 Кбит/сек
Ширина : 720 пикселей
Высота : 384 пикселя
Соотношение сторон : 1,85:1
Частота кадров : 23,976 кадра/сек
Цветовое пространство : YUV
Субдискретизация насыщенности : 4:2:0
Битовая глубина : 8 бит
Тип развёртки : Прогрессивная
Метод сжатия : С потерями
Бит/(Пиксели*Кадры) : 0.243
Размер потока : 1,22 Гбайт (89%)
Библиотека кодирования : XviD 73
Аудио
Идентификатор : 1
Формат : AC-3
Формат/Информация : Audio Coding 3
Расширение режима : CM (complete main)
Параметр Endianness формата : Big
Идентификатор кодека : 2000
Продолжительность : 1 ч. 47 м.
Вид битрейта : Постоянный
Битрейт : 192 Кбит/сек
Каналы : 2 канала
Расположение каналов : Front: L R
Частота : 48,0 КГц
Битовая глубина : 16 бит
Метод сжатия : С потерями
Размер потока : 148 Мбайт (11%)
Выравнивание : Разделение по промежуткам
Продолжительность промежутка : 42 мс. (1,00 видеокадр)
Время предзагрузки промежутка : 500 мс.
Скриншоты:

Время раздачи: 16:00-02:00

Яндекс.Метрика
Рейтинг@Mail.ru